Панель пользователя
Регистрация

Воспользуйтесь социальными сетями для входа на https://freerutor.com

vk odnoklassniki facebook mailru yandex google
Рекомендуем
Счетчик
Голосуй за нас
Популярное
Товары интернет магазина
загрузка...

Крейсер (2016) Blu-Ray Remux 1080p | iTunes

Крейсер (2016) Blu-Ray Remux 1080p | iTunes
Участники торрент обмена
Сидов Пиров Скачали
3 0 64
Характеристика
Размер Файлы
28.74 GB
Релиз группа
Поделиться раздачей
Фильмы (720,1080,Blu-Ray)
Наименование: Крейсер
Оригинальное наименование: USS Indianapolis: Men of Courage
Категория: Боевик, военный
Произведено: США, Hannibal Pictures, USS Indianapolis Production
Режиссер постановщик: Марио Ван Пиблз
В главных ролях: Николас Кейдж, Том Сайзмор, Томас Джейн, Мэтт Лантер, Вероника Розати, Коуди Уокер, Брайан Прэсли, Эмили Теннант, Каллард Харрис, Эмили Мари Палмер
Краткое описание: Лето 1945 года. До конца Второй мировой оставались считанные недели... Крейсер ВМС США «Индианополис» доставил на американскую военную базу на острове Тиниан боеголовку атомной бомбы. На обратном рейде корабль был торпедирован японцами и пошел ко дну. «SOS!» капитана Маквэя не был услышан. И живые позавидовали мертвым: палящее солнце и зубы акул, жажда и галлюцинации, безумие и адские муки отчаяния...
  • Видео данные: MPEG-4 AVC, 27.6 Mбит/с, 1920x1080
    Аудио данные: Русский (AC3, 6 ch, 384 Кбит/с), английский (DTS-HD MA, 6 ch, 3719 Кбит/с)
    Перевод: Дублированный | iTunes
    Продолжительность: 02:04:34
    Субтитры: Английские
  • Крейсер (2016) Blu-Ray Remux 1080p | iTunes Крейсер (2016) Blu-Ray Remux 1080p | iTunes Крейсер (2016) Blu-Ray Remux 1080p | iTunes

  • 1.Общее


    2.Уникальный идентификатор : 211001342163658255804587541591435708158 (0x9EBD615C835DD2648D60F00469BB06FE)


    3.Полное имя : F:\Video\USS.Indianapolis.Men.of.Courage.2016.BDREMUX.1080p.ExKinoRay.mkv


    4.Формат : Matroska


    5.Версия формата : Version 4 / Version 2


    6.Размер файла : 28,7 Гбайт


    7.Продолжительность : 2 ч. 9 м.


    8.Режим общего битрейта : Переменный


    9.Общий поток : 31,7 Мбит/сек


    10.Дата кодирования : UTC 2017-01-07 13:24:32


    11.Программа кодирования : mkvmerge v8.3.0 ('Over the Horizon') 64bit


    12.Библиотека кодирования : libebml v1.3.1 + libmatroska v1.4.2


    13.


    14.Видео


    15.Идентификатор : 1


    16.Формат : AVC


    17.Формат/Информация : Advanced Video Codec


    18.Профиль формата : High@L4.1


    19.Параметр CABAC формата : Да


    20.Параметр ReFrames формата : 4 кадра


    21.Идентификатор кодека : V_MPEG4/ISO/AVC


    22.Продолжительность : 2 ч. 9 м.


    23.Вид битрейта : Переменный


    24.Битрейт : 27,6 Мбит/сек


    25.Максимальный битрейт : 35,0 Мбит/сек


    26.Ширина : 1920 пикселей


    27.Высота : 1080 пикселей


    28.Соотношение сторон : 16:9


    29.Режим частоты кадров : Постоянный


    30.Частота кадров : 23,976 (24000/1001) кадра/сек


    31.Цветовое пространство : YUV


    32.Субдискретизация насыщенности : 4:2:0


    33.Битовая глубина : 8 бит


    34.Тип развёртки : Прогрессивная


    35.Бит/(Пиксели*Кадры) : 0.554


    36.Размер потока : 25,0 Гбайт (87%)


    37.Язык : English


    38.Default : Да


    39.Forced : Нет


    40.


    41.Аудио #1


    42.Идентификатор : 2


    43.Формат : AC-3


    44.Формат/Информация : Audio Coding 3


    45.Расширение режима : CM (complete main)


    46.Параметр Endianness формата : Big


    47.Идентификатор кодека : A_AC3


    48.Продолжительность : 2 ч. 9 м.


    49.Вид битрейта : Постоянный


    50.Битрейт : 384 Кбит/сек


    51.Каналы : 6 каналов


    52.Расположение каналов : Front: L C R, Side: L R, LFE


    53.Частота : 48,0 КГц


    54.Частота кадров : 31,250 кадров/сек (1536 spf)


    55.Битовая глубина : 16 бит


    56.Метод сжатия : С потерями


    57.Размер потока : 357 Мбайт (1%)


    58.Язык : Russian


    59.Default : Да


    60.Forced : Нет


    61.


    62.Аудио #2


    63.Идентификатор : 3


    64.Формат : DTS


    65.Формат/Информация : Digital Theater Systems


    66.Профиль формата : MA / Core


    67.Режим : 16


    68.Параметр Endianness формата : Big


    69.Идентификатор кодека : A_DTS


    70.Продолжительность : 2 ч. 9 м.


    71.Вид битрейта : Переменный / Постоянный


    72.Битрейт : 3719 Кбит/сек / 1509 Кбит/сек


    73.Каналы : 6 каналов


    74.Расположение каналов : Front: L C R, Side: L R, LFE


    75.Частота : 48,0 КГц


    76.Частота кадров : 93,750 кадра/сек (512 spf)


    77.Битовая глубина : 24 бит


    78.Метод сжатия : Без потерь / Lossy


    79.Размер потока : 3,38 Гбайт (12%)


    80.Язык : English


    81.Default : Нет


    82.Forced : Нет


    83.


    84.Текст


    85.Идентификатор : 4


    86.Формат : UTF-8


    87.Идентификатор кодека : S_TEXT/UTF8


    88.Идентификатор кодека/Информация : UTF-8 Plain Text


    89.Продолжительность : 2 ч. 0 м.


    90.Битрейт : 54 бит/сек


    91.Count of elements : 1481


    92.Размер потока : 47,8 Кбайт (0%)


    93.Язык : English


    94.Default : Нет


    95.Forced : Нет


    96.


    97.Меню


    98.00:00:00.000 : en:00:00:00.000


    99.00:10:14.614 : en:00:10:14.614


    100.00:19:45.184 : en:00:19:45.184


    101.00:29:56.795 : en:00:29:56.795


    102.00:42:51.569 : en:00:42:51.569


    103.00:53:08.185 : en:00:53:08.185


    104.01:07:20.703 : en:01:07:20.703


    105.01:19:03.697 : en:01:19:03.697


    106.01:32:38.219 : en:01:32:38.219


    107.01:43:05.137 : en:01:43:05.137


    108.01:58:02.075 : en:01:58:02.075
5.5 из 10
голосов: 2
/10
/10
616759 7-01-2017, 18:44
Информация
Посетители, находящиеся в группе Гости, не могут оставлять комментарии к данной публикации.