Панель пользователя
Регистрация

Воспользуйтесь социальными сетями для входа на https://freerutor.com

vk odnoklassniki facebook mailru yandex google
Рекомендуем
Счетчик
Голосуй за нас
Популярное
Товары интернет магазина
загрузка...

Крутые меры (2016) BDRip-AVC | Лицензия

Крутые меры (2016) BDRip-AVC | Лицензия
Участники торрент обмена
Сидов Пиров Скачали
2 0 204
Характеристика
Размер Файлы
1.95 GB
Релиз группа
Поделиться раздачей
Фильмы (AVC)
Наименование: Крутые меры
Оригинальное наименование: Bastille Day
Произведено: Великобритания, Франция, США / Amazon Prime Instant Video, ACE, Canal+ [fr], TF1
Категория: Боевик, драма
Режиссер постановщик: Джеймс Уоткинс
В главных ролях: Идрис Эльба, Ричард Мэдден, Келли Райлли, Шарлотта Ле Бон, Анатол Юсеф, Хосе Гарсия, Стефани Кайлар, Лаура Хидари, Хорхе Леон Мартинес, Эрик Эбони
Краткое описание: Ловкий карманник Майкл Мэйсон привлекает внимание полиции и спецслужб, когда крадет сумку, содержащую гораздо больше, чем просто бумажник. На его след выходит дерзкий и резкий спецагент ЦРУ Шон Брайар. Вдвоем они становятся мишенью тайной преступной организации и в течение суток должны вывести злоумышленников на чистую воду.
  • Видео данные: MPEG-4 AVC, 2105 Кбит/с, 1024x428
    Аудио данные: Русский, английский (AC3, 6 ch, 448 Кбит/с)
    Перевод: Дублированный [Лицензия]
    Субтитры: Английские
    Продолжительность: 01:31:53
  • Крутые меры (2016) BDRip-AVC | Лицензия Крутые меры (2016) BDRip-AVC | Лицензия Крутые меры (2016) BDRip-AVC | Лицензия
  • General
    Unique ID : 223523509594605558177088533056426366107 (0xA8290FE1DF246261991711E18D10549B)
    Complete name : D:Natalianew12.2016Bastille.Day.2016.D.BDRip.AVC.ExKinoRay.mkv
    Format : Matroska
    Format version : Version 2
    File size : 1.95 GiB
    Duration : 1 h 39 min
    Overall bit rate : 2 791 kb/s
    Movie name : Крутые меры (2016) from ExKinoRay
    Encoded date : UTC 2016-12-23 02:36:20
    Writing application : mkvmerge v7.6.0 ('Garden of Dreams') 32bit built on Feb 11 2015 00:18:47
    Writing library : libebml v1.3.1 + libmatroska v1.4.2

    Video
    ID : 1
    Format : AVC
    Format/Info : Advanced Video Codec
    Format profile : High@L4.1
    Format settings, CABAC : Yes
    Format settings, ReFrames : 13 frames
    Codec ID : V_MPEG4/ISO/AVC
    Duration : 1 h 39 min
    Bit rate : 1 840 kb/s
    Nominal bit rate : 2 105 kb/s
    Width : 1 024 pixels
    Height : 428 pixels
    Display aspect ratio : 2.40:1
    Frame rate mode : Constant
    Frame rate : 24.000 FPS
    Color space : YUV
    Chroma subsampling : 4:2:0
    Bit depth : 8 bits
    Scan type : Progressive
    Bits/(Pixel*Frame) : 0.175
    Stream size : 1.28 GiB (66%)
    Title : Enigma
    Writing library : x264 core 144 r2525 40bb568
    Encoding settings : cabac=1 / ref=13 / deblock=1:-3:-3 / analyse=0x3:0x113 / me=umh / subme=10 / psy=1 / psy_rd=1.05:0.10 / mixed_ref=1 / me_range=32 / chroma_me=1 / trellis=2 / 8x8dct=1 / cqm=0 / deadzone=21,11 / fast_pskip=1 / chroma_qp_offset=-3 / threads=12 / lookahead_threads=3 / sliced_threads=0 / nr=0 / decimate=1 / interlaced=0 / bluray_compat=0 / constrained_intra=0 / bframes=14 / b_pyramid=2 / b_adapt=2 / b_bias=0 / direct=3 / weightb=1 / open_gop=0 / weightp=2 / keyint=240 / keyint_min=24 / scenecut=40 / intra_refresh=0 / rc_lookahead=40 / rc=2pass / mbtree=0 / bitrate=2105 / ratetol=1.0 / qcomp=0.62 / qpmin=0 / qpmax=51 / qpstep=4 / cplxblur=20.0 / qblur=0.5 / vbv_maxrate=50000 / vbv_bufsize=62500 / nal_hrd=none / filler=0 / ip_ratio=1.40 / pb_ratio=1.30 / aq=3:0.80
    Language : English
    Default : Yes
    Forced : No
    Color range : Limited
    Color primaries : BT.709
    Transfer characteristics : BT.709
    Matrix coefficients : BT.709

    Audio #1
    ID : 2
    Format : AC-3
    Format/Info : Audio Coding 3
    Mode extension : CM (complete main)
    Format settings, Endianness : Big
    Codec ID : A_AC3
    Duration : 1 h 39 min
    Bit rate mode : Constant
    Bit rate : 448 kb/s
    Channel(s) : 6 channels
    Channel positions : Front: L C R, Side: L R, LFE
    Sampling rate : 48.0 kHz
    Frame rate : 31.250 FPS (1536 spf)
    Compression mode : Lossy
    Stream size : 320 MiB (16%)
    Title : Dub (Blu-ray RUS)
    Language : Russian
    Default : Yes
    Forced : No

    Audio #2
    ID : 3
    Format : AC-3
    Format/Info : Audio Coding 3
    Mode extension : CM (complete main)
    Format settings, Endianness : Big
    Codec ID : A_AC3
    Duration : 1 h 39 min
    Bit rate mode : Constant
    Bit rate : 448 kb/s
    Channel(s) : 6 channels
    Channel positions : Front: L C R, Side: L R, LFE
    Sampling rate : 48.0 kHz
    Frame rate : 31.250 FPS (1536 spf)
    Compression mode : Lossy
    Stream size : 320 MiB (16%)
    Language : English
    Default : No
    Forced : No

    Text #1
    ID : 4
    Format : UTF-8
    Codec ID : S_TEXT/UTF8
    Codec ID/Info : UTF-8 Plain Text
    Title : Full
    Language : English
    Default : No
    Forced : No

    Text #2
    ID : 5
    Format : UTF-8
    Codec ID : S_TEXT/UTF8
    Codec ID/Info : UTF-8 Plain Text
    Title : SDH
    Language : English
    Default : No
    Forced : No

    Menu
    00:00:00.000 : en:Chapter 01
    00:08:06.500 : en:Chapter 02
    00:16:39.458 : en:Chapter 03
    00:24:20.625 : en:Chapter 04
    00:33:04.500 : en:Chapter 05
    00:41:04.125 : en:Chapter 06
    00:48:37.500 : en:Chapter 07
    00:57:03.375 : en:Chapter 08
    01:07:59.250 : en:Chapter 09
    01:16:54.458 : en:Chapter 10
    01:21:42.916 : en:Chapter 11
    01:25:27.208 : en:Chapter 12
5.0 из 10
голосов: 1
/10
/10
VlaDyka 24-12-2016, 10:01
Информация
Посетители, находящиеся в группе Гости, не могут оставлять комментарии к данной публикации.