Панель пользователя
Регистрация

Воспользуйтесь социальными сетями для входа на https://freerutor.com

vk odnoklassniki facebook mailru yandex google
Рекомендуем
Счетчик
Голосуй за нас
Популярное
Товары интернет магазина
загрузка...

Сноуден (2016) BDRip-AVC | iTunes | R.G.Resident

Сноуден (2016) BDRip-AVC | iTunes | R.G.Resident
Участники торрент обмена
Сидов Пиров Скачали
8 0 453
Характеристика
Размер Файлы
3.51 GB
Релиз группа
Поделиться раздачей
Фильмы (AVC)
Наименование: Сноуден
Оригинальное наименование: Snowden
Категория: триллер, драма, биография
Произведено: Франция, Германия, США
Режиссер постановщик: Оливер Стоун
В главных ролях: Джозеф Гордон-Левитт, Шейлин Вудли, Мелисса Лео, Закари Куинто, Том Уилкинсон, Скотт Иствуд, Рис Иванс, Николас Кейдж, Тимоти Олифант, Джеймс Батлер
Краткое описание: Он мечтал продолжить семейную традицию и посвятить свою жизнь служению Родине. Он безоговорочно верил в правительство США и поддерживал антитеррористическую программу. На заре его карьеры в спецслужбах никто, даже он сам, не мог бы предположить, что именно он, Эдвард Сноуден, совершит самое крупное разоблачение в мировой истории, обнародовав секретные документы, касающиеся тотальной слежки США за своими гражданами и гражданами других государств. Открыв миру глаза на правду, он навсегда закрыл для себя двери в счастливое будущее: отказался от карьеры, любимой девушки и Родины, которая назвала его предателем...
  • Видео данные: MPEG-4 AVC, 2898 Кбит/с, 1024x426
    Аудио данные: Русский (AC3, 6 ch, 384 Кбит/с), английский (АС3, 6 ch, 448 Кбит/с)
    Перевод: Дубляж - [iTunes]
    Продолжительность: 02:14:49
    Субтитры: английские (Full), английские (SDH)
  • Сноуден (2016) BDRip-AVC | iTunes | R.G.Resident Сноуден (2016) BDRip-AVC | iTunes | R.G.Resident Сноуден (2016) BDRip-AVC | iTunes | R.G.Resident
  • General
    Unique ID : 180065096698487875688964958707809947736 (0x877746B2E26B5CBBBCA6D9B6AA8E9058)
    Complete name : D:downloadSnowden.2016.BDRip-AVC by schultz R.G.Resident.mkv
    Format : Matroska
    Format version : Version 4 / Version 2
    File size : 3.51 GiB
    Duration : 2 h 14 min
    Overall bit rate : 3 732 kb/s
    Encoded date : UTC 2016-12-22 01:55:05
    Writing application : mkvmerge v8.9.0 ('Father Daughter') 64bit
    Writing library : libebml v1.3.3 + libmatroska v1.4.4

    Video
    ID : 1
    Format : AVC
    Format/Info : Advanced Video Codec
    Format profile : High@L4.1
    Format settings, CABAC : Yes
    Format settings, ReFrames : 12 frames
    Codec ID : V_MPEG4/ISO/AVC
    Duration : 2 h 14 min
    Bit rate : 2 898 kb/s
    Width : 1 024 pixels
    Height : 426 pixels
    Display aspect ratio : 2.40:1
    Frame rate mode : Constant
    Frame rate : 23.976 (23976/1000) FPS
    Color space : YUV
    Chroma subsampling : 4:2:0
    Bit depth : 8 bits
    Scan type : Progressive
    Bits/(Pixel*Frame) : 0.277
    Stream size : 2.73 GiB (78%)
    Writing library : x264 core 146 r2538 121396c
    Encoding settings : cabac=1 / ref=12 / deblock=1:-3:-3 / analyse=0x3:0x113 / me=umh / subme=11 / psy=1 / psy_rd=1.00:0.00 / mixed_ref=1 / me_range=48 / chroma_me=1 / trellis=2 / 8x8dct=1 / cqm=0 / deadzone=21,11 / fast_pskip=0 / chroma_qp_offset=-2 / threads=12 / lookahead_threads=3 / sliced_threads=0 / nr=0 / decimate=0 / interlaced=0 / bluray_compat=0 / constrained_intra=0 / bframes=11 / b_pyramid=2 / b_adapt=2 / b_bias=0 / direct=3 / weightb=1 / open_gop=0 / weightp=2 / keyint=240 / keyint_min=23 / scenecut=40 / intra_refresh=0 / rc_lookahead=40 / rc=2pass / mbtree=1 / bitrate=2898 / ratetol=1.0 / qcomp=0.60 / qpmin=0 / qpmax=69 / qpstep=4 / cplxblur=20.0 / qblur=0.5 / vbv_maxrate=50000 / vbv_bufsize=62500 / nal_hrd=none / filler=0 / ip_ratio=1.40 / aq=1:1.00
    Language : English
    Default : Yes
    Forced : No

    Audio #1
    ID : 2
    Format : AC-3
    Format/Info : Audio Coding 3
    Mode extension : CM (complete main)
    Format settings, Endianness : Big
    Codec ID : A_AC3
    Duration : 2 h 14 min
    Bit rate mode : Constant
    Bit rate : 384 kb/s
    Channel(s) : 6 channels
    Channel positions : Front: L C R, Side: L R, LFE
    Sampling rate : 48.0 kHz
    Frame rate : 31.250 FPS (1536 spf)
    Compression mode : Lossy
    Stream size : 370 MiB (10%)
    Language : Russian
    Default : Yes
    Forced : No

    Audio #2
    ID : 3
    Format : AC-3
    Format/Info : Audio Coding 3
    Mode extension : CM (complete main)
    Format settings, Endianness : Big
    Codec ID : A_AC3
    Duration : 2 h 14 min
    Bit rate mode : Constant
    Bit rate : 448 kb/s
    Channel(s) : 6 channels
    Channel positions : Front: L C R, Side: L R, LFE
    Sampling rate : 48.0 kHz
    Frame rate : 31.250 FPS (1536 spf)
    Compression mode : Lossy
    Stream size : 432 MiB (12%)
    Language : English
    Default : No
    Forced : No

    Text #1
    ID : 4
    Format : UTF-8
    Codec ID : S_TEXT/UTF8
    Codec ID/Info : UTF-8 Plain Text
    Duration : 2 h 9 min
    Bit rate : 76 b/s
    Count of elements : 2032
    Stream size : 72.0 KiB (0%)
    Title : full
    Language : English
    Default : No
    Forced : No

    Text #2
    ID : 5
    Format : UTF-8
    Codec ID : S_TEXT/UTF8
    Codec ID/Info : UTF-8 Plain Text
    Duration : 2 h 9 min
    Bit rate : 82 b/s
    Count of elements : 2176
    Stream size : 78.2 KiB (0%)
    Title : SDH
    Language : English
    Default : No
    Forced : No

    Menu
    00:00:00.000 : en:00:00:00.000
    00:07:42.379 : en:00:07:42.379
    00:15:49.991 : en:00:15:49.991
    00:20:06.038 : en:00:20:06.038
    00:26:32.007 : en:00:26:32.007
    00:30:10.976 : en:00:30:10.976
    00:35:30.211 : en:00:35:30.211
    00:41:42.875 : en:00:41:42.875
    00:51:45.769 : en:00:51:45.769
    00:59:14.301 : en:00:59:14.301
    01:04:44.547 : en:01:04:44.547
    01:12:47.822 : en:01:12:47.822
    01:18:07.474 : en:01:18:07.474
    01:25:11.398 : en:01:25:11.398
    01:30:30.717 : en:01:30:30.717
    01:38:11.427 : en:01:38:11.427
    01:50:06.141 : en:01:50:06.141
    01:57:00.472 : en:01:57:00.472
    02:03:22.353 : en:02:03:22.353
    02:07:49.161 : en:02:07:49.161
9.7 из 10
голосов: 3
/10
/10
schultz 22-12-2016, 04:37

scarry | 31-12-2016, 13:12 | Статус: Оффлайн

Ужасно тихий звуковой трек. -18db! Похоже это засада всех релизов от R.G.Resident. Сам фильм нудноват, многое не раскрыто.
Информация
Посетители, находящиеся в группе Гости, не могут оставлять комментарии к данной публикации.