Панель пользователя
Регистрация

Воспользуйтесь социальными сетями для входа на https://freerutor.com

vk odnoklassniki facebook mailru yandex google
Рекомендуем
Счетчик
Голосуй за нас
Популярное
Товары интернет магазина
загрузка...

Глубоководный горизонт (2016) BDRip 720p | iTunes

Глубоководный горизонт (2016) BDRip 720p | iTunes
Участники торрент обмена
Сидов Пиров Скачали
14 5 661
Характеристика
Размер Файлы
5.64 GB
Релиз группа
Поделиться раздачей
Фильмы (720,1080,Blu-Ray)
Название: Глубоководный горизонт
Оригинальное название: Deepwater Horizon
Жанр: боевик, триллер, драма
Выпущено: США / Lionsgate, Summit Entertainment
Режиссер постановщик: Питер Берг
В главных ролях: Марк Уолберг, Дилан О’Брайен, Кейт Хадсон, Курт Рассел, Джина Родригез, Итан Сапли, Джон Малкович, Джо Крест, Сью-Линн Ансари, Роберт Уокер Браншод
Краткое описание: Отправляясь на очередную вахту и прощаясь с семьями, они не подозревали, что могут не вернуться… Это основанная на реальных событиях история о страшной аварии на нефтяной платформе «Глубоководный горизонт», которая произошла в 2010 году в Мексиканском заливе. Хроника беспримерного мужества и отваги перед лицом одной из самых страшных техногенных катастроф в мировой истории.
  • Видео: MPEG-4 AVC, 6500 kb/s, 1280x534
    Аудио: Russian: AC3, 384 kb/s (6 ch) / English: AC3, 640 kb/s (6 ch)
    Перевод: Дублированный - iTunes
    Субтитры: английские
    Продолжительность: 01:47:17
  • Глубоководный горизонт (2016) BDRip 720p | iTunes Глубоководный горизонт (2016) BDRip 720p | iTunes Глубоководный горизонт (2016) BDRip 720p | iTunes
  • Общее
    Уникальный идентификатор : 189160967586239587027858914772907470361 (0x8E4F13C1F605130F9CC31643AAE82E19)
    Полное имя : F:VideoDeepwater.Horizon.2016.BDRip.720p.ExKinoRay.mkv
    Формат : Matroska
    Версия формата : Version 4 / Version 2
    Размер файла : 5,64 Гбайт
    Продолжительность : 1 ч. 47 м.
    Общий поток : 7525 Кбит/сек
    Название фильма : Deepwater.Horizon.2016 ***селезень***
    Дата кодирования : UTC 2016-12-29 08:25:01
    Программа кодирования : mkvmerge v8.3.0 ('Over the Horizon') 64bit
    Библиотека кодирования : libebml v1.3.1 + libmatroska v1.4.2

    Видео
    Идентификатор : 1
    Формат : AVC
    Формат/Информация : Advanced Video Codec
    Профиль формата : High@L4.1
    Параметр CABAC формата : Да
    Параметр ReFrames формата : 12 кадров
    Идентификатор кодека : V_MPEG4/ISO/AVC
    Продолжительность : 1 ч. 47 м.
    Битрейт : 6500 Кбит/сек
    Ширина : 1280 пикселей
    Высота : 534 пикселя
    Соотношение сторон : 2,40:1
    Режим частоты кадров : Постоянный
    Частота кадров : 23,976 (24000/1001) кадра/сек
    Цветовое пространство : YUV
    Субдискретизация насыщенности : 4:2:0
    Битовая глубина : 8 бит
    Тип развёртки : Прогрессивная
    Бит/(Пиксели*Кадры) : 0.397
    Размер потока : 4,87 Гбайт (86%)
    Заголовок : Deepwater.Horizon.2016 ***селезень***
    Библиотека кодирования : x264 core 148 r2665kMod a01e339
    Настройки программы : cabac=1 / ref=12 / deblock=1:-3:-3 / analyse=0x3:0x133 / me=umh / subme=11 / psy=1 / fade_compensate=0.00 / psy_rd=1.05:0.00 / mixed_ref=1 / me_range=32 / chroma_me=1 / trellis=2 / 8x8dct=1 / cqm=0 / deadzone=21,11 / fast_pskip=0 / chroma_qp_offset=-2 / threads=17 / lookahead_threads=2 / sliced_threads=0 / nr=0 / decimate=0 / interlaced=0 / bluray_compat=0 / constrained_intra=0 / fgo=0 / bframes=8 / b_pyramid=2 / b_adapt=2 / b_bias=0 / direct=3 / weightb=1 / open_gop=0 / weightp=2 / keyint=240 / keyint_min=24 / scenecut=40 / intra_refresh=0 / rc=2pass / mbtree=0 / bitrate=6500 / ratetol=1.0 / qcomp=0.70 / qpmin=0 / qpmax=69 / qpstep=4 / cplxblur=20.0 / qblur=0.5 / ip_ratio=1.20 / pb_ratio=1.20 / aq=3:0.85
    Язык : English
    Default : Да
    Forced : Нет

    Аудио #1
    Идентификатор : 2
    Формат : AC-3
    Формат/Информация : Audio Coding 3
    Расширение режима : CM (complete main)
    Параметр Endianness формата : Big
    Идентификатор кодека : A_AC3
    Продолжительность : 1 ч. 47 м.
    Вид битрейта : Постоянный
    Битрейт : 384 Кбит/сек
    Каналы : 6 каналов
    Расположение каналов : Front: L C R, Side: L R, LFE
    Частота : 48,0 КГц
    Частота кадров : 31,250 кадров/сек (1536 spf)
    Битовая глубина : 16 бит
    Метод сжатия : С потерями
    Размер потока : 295 Мбайт (5%)
    Заголовок : Dub [iTunes]
    Язык : Russian
    Default : Да
    Forced : Нет

    Аудио #2
    Идентификатор : 3
    Формат : AC-3
    Формат/Информация : Audio Coding 3
    Расширение режима : CM (complete main)
    Параметр Endianness формата : Big
    Идентификатор кодека : A_AC3
    Продолжительность : 1 ч. 47 м.
    Вид битрейта : Постоянный
    Битрейт : 640 Кбит/сек
    Каналы : 6 каналов
    Расположение каналов : Front: L C R, Side: L R, LFE
    Частота : 48,0 КГц
    Частота кадров : 31,250 кадров/сек (1536 spf)
    Битовая глубина : 16 бит
    Метод сжатия : С потерями
    Размер потока : 491 Мбайт (9%)
    Заголовок : Original
    Язык : English
    Default : Нет
    Forced : Нет

    Текст
    Идентификатор : 4
    Формат : UTF-8
    Идентификатор кодека : S_TEXT/UTF8
    Идентификатор кодека/Информация : UTF-8 Plain Text
    Продолжительность : 1 ч. 36 м.
    Битрейт : 70 бит/сек
    Count of elements : 1477
    Размер потока : 50,2 Кбайт (0%)
    Заголовок : Full
    Язык : English
    Default : Нет
    Forced : Нет

    Меню
    00:00:00.000 : en:00:00:00.000
    00:07:01.212 : en:00:07:01.212
    00:12:32.627 : en:00:12:32.627
    00:19:34.465 : en:00:19:34.465
    00:27:17.219 : en:00:27:17.219
    00:34:52.632 : en:00:34:52.632
    00:44:29.834 : en:00:44:29.834
    00:48:04.924 : en:00:48:04.924
    00:53:47.599 : en:00:53:47.599
    00:58:05.148 : en:00:58:05.148
    01:05:44.607 : en:01:05:44.607
    01:10:06.869 : en:01:10:06.869
    01:16:02.933 : en:01:16:02.933
    01:20:44.381 : en:01:20:44.381
    01:27:37.669 : en:01:27:37.669
    01:31:37.826 : en:01:31:37.826
9.1 из 10
голосов: 10
/10
/10
karta 29-12-2016, 02:58

karta | 29-12-2016, 02:58 | Статус: Оффлайн


ioioioii | 20-12-2016, 04:00 | Статус: Оффлайн

Посмотреть можно, на 1 раз
Информация
Посетители, находящиеся в группе Гости, не могут оставлять комментарии к данной публикации.