Панель пользователя
Регистрация

Воспользуйтесь социальными сетями для входа на https://freerutor.com

vk odnoklassniki facebook mailru yandex google
Рекомендуем
Счетчик
Голосуй за нас
Популярное
Товары интернет магазина
загрузка...

Ярость 3 (2016) BDRip 720p

Ярость 3 (2016) BDRip 720p
Участники торрент обмена
Сидов Пиров Скачали
21 1 2472
Характеристика
Размер Файлы
5.47 GB
Поделиться раздачей
Фильмы (720,1080,Blu-Ray)
Наименование: Ярость 3
Оригинальное наименование: Rampage: President Down
Произведено: Канада
Категория: боевик, триллер, криминал
Режиссер постановщик: Уве Болл
В главных ролях: Брендан Флетчер, Брюс Блэйн, Лоретта Уолш, Зайн Магхджи, Стив Бэран, Райан МакДонелл, Скотт Пате, Кристал Лоу, Дэн Ши
Краткое описание: Продолжение кровавой истории идейного убийцы Билла Уильямсона. Вдохновившись новостными репортажами, неуловимый каратель начинает новую расправу над обществом, которое изжило себя и нуждается в адовой встряске.
  • Видео данные: MPEG-4 AVC, 5900 Кбит/с, 1280x720
    Аудио данные: Русский (AC3, 6 ch, 448 Кбит/с), английский (DTS, 6 ch, 1509 Кбит/с)
    Перевод: Профессиональный многоголосый [2D & Agent Smit]
    Субтитры: Немецкие
    Продолжительность: 01:39:45
    Реклама отсутствует!

    Ярость 3 (2016) BDRip 720p
  • Ярость 3 (2016) BDRip 720p Ярость 3 (2016) BDRip 720p Ярость 3 (2016) BDRip 720p
  • x264 [info]: frame I:2023 Avg QP:16.69 size:107885
    x264 [info]: frame P:83709 Avg QP:18.80 size: 40395
    x264 [info]: frame B:57775 Avg QP:19.53 size: 14038

    Общее
    Уникальный идентификатор : 183097607824388984859167150110796124372 (0x89BF510A6F341D049AA88160C9B790D4)
    Полное имя : D:\загрузки\Rampage.President.Down.2016.MVO.BDRip.720р.mkv
    Формат : Matroska
    Версия формата : Version 2
    Размер файла : 5,47 Гбайт
    Продолжительность : 1 ч. 39 м.
    Общий поток : 7854 Кбит/сек
    Дата кодирования : UTC 2016-12-17 12:24:55
    Программа кодирования : mkvmerge v7.8.0 ('River Man') 32bit built on Apr 3 2015 12:11:22
    Библиотека кодирования : libebml v1.3.1 + libmatroska v1.4.2

    Видео
    Идентификатор : 1
    Формат : AVC
    Формат/Информация : Advanced Video Codec
    Профиль формата : High@L4.1
    Параметр CABAC формата : Да
    Параметр ReFrames формата : 9 кадров
    Идентификатор кодека : V_MPEG4/ISO/AVC
    Продолжительность : 1 ч. 39 м.
    Битрейт : 5900 Кбит/сек
    Ширина : 1280 пикселей
    Высота : 720 пикселей
    Соотношение сторон : 16:9
    Режим частоты кадров : Постоянный
    Частота кадров : 23,976 кадра/сек
    Цветовое пространство : YUV
    Субдискретизация насыщенности : 4:2:0
    Битовая глубина : 8 бит
    Тип развёртки : Прогрессивная
    Бит/(Пиксели*Кадры) : 0.267
    Размер потока : 4,00 Гбайт (73%)
    Библиотека кодирования : x264 core 146 r2538 121396c
    Настройки программы : cabac=1 / ref=9 / deblock=1:0:0 / analyse=0x3:0x133 / me=umh / subme=11 / psy=1 / psy_rd=1.00:0.00 / mixed_ref=1 / me_range=32 / chroma_me=1 / trellis=2 / 8x8dct=1 / cqm=0 / deadzone=21,11 / fast_pskip=0 / chroma_qp_offset=-2 / threads=6 / lookahead_threads=1 / sliced_threads=0 / nr=0 / decimate=1 / interlaced=0 / bluray_compat=0 / constrained_intra=0 / bframes=9 / b_pyramid=2 / b_adapt=1 / b_bias=0 / direct=3 / weightb=1 / open_gop=0 / weightp=2 / keyint=240 / keyint_min=23 / scenecut=40 / intra_refresh=0 / rc_lookahead=40 / rc=2pass / mbtree=0 / bitrate=5900 / ratetol=1.0 / qcomp=0.60 / qpmin=0 / qpmax=69 / qpstep=4 / cplxblur=20.0 / qblur=0.5 / vbv_maxrate=50000 / vbv_bufsize=62500 / nal_hrd=none / filler=0 / ip_ratio=1.40 / pb_ratio=1.30 / aq=1:1.00
    Язык : English
    Default : Да
    Forced : Нет

    Аудио #1
    Идентификатор : 2
    Формат : AC-3
    Формат/Информация : Audio Coding 3
    Расширение режима : CM (complete main)
    Параметр Endianness формата : Big
    Идентификатор кодека : A_AC3
    Продолжительность : 1 ч. 39 м.
    Вид битрейта : Постоянный
    Битрейт : 448 Кбит/сек
    Каналы : 6 каналов
    Расположение каналов : Front: L C R, Side: L R, LFE
    Частота : 48,0 КГц
    Битовая глубина : 16 бит
    Метод сжатия : С потерями
    Размер потока : 320 Мбайт (6%)
    Язык : Russian
    Default : Да
    Forced : Нет

    Аудио #2
    Идентификатор : 3
    Формат : DTS
    Формат/Информация : Digital Theater Systems
    Режим : 16
    Параметр Endianness формата : Big
    Идентификатор кодека : A_DTS
    Продолжительность : 1 ч. 39 м.
    Вид битрейта : Постоянный
    Битрейт : 1509 Кбит/сек
    Каналы : 6 каналов
    Расположение каналов : Front: L C R, Side: L R, LFE
    Частота : 48,0 КГц
    Битовая глубина : 16 бит
    Метод сжатия : С потерями
    Размер потока : 1,05 Гбайт (19%)
    Язык : English
    Default : Нет
    Forced : Нет

    Текст
    Идентификатор : 4
    Формат : UTF-8
    Идентификатор кодека : S_TEXT/UTF8
    Идентификатор кодека/Информация : UTF-8 Plain Text
    Язык : German
    Default : Нет
    Forced : Нет

    Меню
    00:00:00.000 : en:Chapter 01
    00:08:45.191 : en:Chapter 02
    00:16:58.976 : en:Chapter 03
    00:26:00.767 : en:Chapter 04
    00:31:53.953 : en:Chapter 05
    00:40:29.051 : en:Chapter 06
    00:49:43.438 : en:Chapter 07
    00:58:22.707 : en:Chapter 08
    01:06:33.322 : en:Chapter 09
    01:13:15.391 : en:Chapter 10
    01:24:04.164 : en:Chapter 11
    01:33:26.017 : en:Chapter 12
10.0 из 10
голосов: 6
/10
/10
karta 17-12-2016, 16:04
Информация
Посетители, находящиеся в группе Гости, не могут оставлять комментарии к данной публикации.