Панель пользователя
Регистрация

Воспользуйтесь социальными сетями для входа на https://freerutor.com

vk odnoklassniki facebook mailru yandex google
Рекомендуем
Счетчик
Голосуй за нас
Популярное
Товары интернет магазина
загрузка...

Супергерои (2016) BDRip-AVC | iTunes | R.G.Resident

Супергерои (2016) BDRip-AVC | iTunes | R.G.Resident
Участники торрент обмена
Сидов Пиров Скачали
36 4 3153
Характеристика
Размер Файлы
2.17 GB
Релиз группа
Поделиться раздачей
Мультфильмы
Наименование: Супергерои
Оригинальное наименование: Bling
Категория: мультфильм
Произведено: США, Корея Южная
Режиссер постановщик: Ли Гён-хо , Ли Вон-джэ
В главных ролях: Тейлор Китч, Дженнет МакКарди, Джеймс Вудс, Карла Гуджино, Том Грин, Джон Хидер, Джейсон Мьюз, Джейсон Кравиц, Джим Брюэр
Краткое описание: Когда на город готовится нападение величайшего в истории злодея, когда предложение руки и сердца закончилось грандиозным провалом, а кольцо для любимой девушки потеряно...
  • Видео данные: MPEG-4 AVC, 2994 Кбит/с, 1024x576
    Аудио данные: Русский (AC3, 6 ch, 384 Кбит/с), английский (АС3, 6 ch, 448 Кбит/с)
    Перевод: Дубляж - [iTunes]
    Продолжительность: 01:21:16
  • Супергерои (2016) BDRip-AVC | iTunes | R.G.Resident Супергерои (2016) BDRip-AVC | iTunes | R.G.Resident Супергерои (2016) BDRip-AVC | iTunes | R.G.Resident
  • General
    Unique ID : 248386870434759799582961218533679495931 (0xBADD92374C82216992748A9D6D34FAFB)
    Complete name : D:downloadBling.2016.BDRip-AVC by schultz R.G.Resident.mkv
    Format : Matroska
    Format version : Version 4 / Version 2
    File size : 2.17 GiB
    Duration : 1 h 21 min
    Overall bit rate : 3 822 kb/s
    Encoded date : UTC 2016-12-15 10:34:27
    Writing application : mkvmerge v8.9.0 ('Father Daughter') 64bit
    Writing library : libebml v1.3.3 + libmatroska v1.4.4

    Video
    ID : 1
    Format : AVC
    Format/Info : Advanced Video Codec
    Format profile : High@L4.1
    Format settings, CABAC : Yes
    Format settings, ReFrames : 12 frames
    Codec ID : V_MPEG4/ISO/AVC
    Duration : 1 h 21 min
    Bit rate : 2 994 kb/s
    Width : 1 024 pixels
    Height : 576 pixels
    Display aspect ratio : 16:9
    Frame rate mode : Constant
    Frame rate : 24.000 FPS
    Color space : YUV
    Chroma subsampling : 4:2:0
    Bit depth : 8 bits
    Scan type : Progressive
    Bits/(Pixel*Frame) : 0.212
    Stream size : 1.70 GiB (78%)
    Writing library : x264 core 146 r2538 121396c
    Encoding settings : cabac=1 / ref=12 / deblock=1:-3:-3 / analyse=0x3:0x113 / me=umh / subme=11 / psy=1 / psy_rd=1.00:0.00 / mixed_ref=1 / me_range=48 / chroma_me=1 / trellis=2 / 8x8dct=1 / cqm=0 / deadzone=21,11 / fast_pskip=0 / chroma_qp_offset=-2 / threads=12 / lookahead_threads=3 / sliced_threads=0 / nr=0 / decimate=0 / interlaced=0 / bluray_compat=0 / constrained_intra=0 / bframes=11 / b_pyramid=2 / b_adapt=2 / b_bias=0 / direct=3 / weightb=1 / open_gop=0 / weightp=2 / keyint=240 / keyint_min=24 / scenecut=40 / intra_refresh=0 / rc_lookahead=40 / rc=2pass / mbtree=1 / bitrate=2994 / ratetol=1.0 / qcomp=0.60 / qpmin=0 / qpmax=69 / qpstep=4 / cplxblur=20.0 / qblur=0.5 / vbv_maxrate=50000 / vbv_bufsize=62500 / nal_hrd=none / filler=0 / ip_ratio=1.40 / aq=1:1.00
    Language : English
    Default : Yes
    Forced : No

    Audio #1
    ID : 2
    Format : AC-3
    Format/Info : Audio Coding 3
    Mode extension : CM (complete main)
    Format settings, Endianness : Big
    Codec ID : A_AC3
    Duration : 1 h 21 min
    Bit rate mode : Constant
    Bit rate : 384 kb/s
    Channel(s) : 6 channels
    Channel positions : Front: L C R, Side: L R, LFE
    Sampling rate : 48.0 kHz
    Frame rate : 31.250 FPS (1536 spf)
    Compression mode : Lossy
    Delay relative to video : 47 ms
    Stream size : 223 MiB (10%)
    Language : Russian
    Default : Yes
    Forced : Yes

    Audio #2
    ID : 3
    Format : AC-3
    Format/Info : Audio Coding 3
    Mode extension : CM (complete main)
    Format settings, Endianness : Big
    Codec ID : A_AC3
    Duration : 1 h 21 min
    Bit rate mode : Constant
    Bit rate : 448 kb/s
    Channel(s) : 6 channels
    Channel positions : Front: L C R, Side: L R, LFE
    Sampling rate : 48.0 kHz
    Frame rate : 31.250 FPS (1536 spf)
    Compression mode : Lossy
    Stream size : 260 MiB (12%)
    Language : English
    Default : No
    Forced : No

    Menu
    00:00:00.000 : en:Chapter 01
    00:09:59.791 : en:Chapter 02
    00:20:00.000 : en:Chapter 03
    00:30:00.000 : en:Chapter 04
    00:39:59.666 : en:Chapter 05
    00:49:59.583 : en:Chapter 06
    01:00:00.000 : en:Chapter 07
    01:09:59.916 : en:Chapter 08
8.9 из 10
голосов: 9
/10
/10
schultz 15-12-2016, 13:56
Информация
Посетители, находящиеся в группе Гости, не могут оставлять комментарии к данной публикации.