Панель пользователя
Регистрация

Воспользуйтесь социальными сетями для входа на https://freerutor.com

vk odnoklassniki facebook mailru yandex google
Рекомендуем
Счетчик
Голосуй за нас
Популярное
Товары интернет магазина
загрузка...

Чувство справедливости (2016) BDRip 720p | iTunes

Чувство справедливости (2016) BDRip 720p | iTunes
Участники торрент обмена
Сидов Пиров Скачали
1 0 226
Характеристика
Размер Файлы
4.16 GB
Поделиться раздачей
Фильмы (720,1080,Blu-Ray)
Наименование: Чувство справедливости
Оригинальное наименование: Equity
Произведено: США
Категория: драма
Режиссер постановщик: Мира Менон
В главных ролях: Анна Ганн, Джеймс Пьюрфой, Сара Меган Томас, Алисия Райнер, Крэйг Бирко, Маргарет Колин, Нэйт Корддри, Ник Гелфусс, Кэрри Престон, Сэмюэл Рукин
Краткое описание: История старшего инвестиционного банкира, которой вопреки нависшему над ней финансовому скандалу предстоит раскрыть коррупционные схемы.
  • Видео данные: MPEG-4 AVC, 3926 kb/s, 1280x690
    Аудио данные: Russian: AC3, 384 kb/s (6 ch) / English: DTS, 1509 kb/s (6 ch)
    Перевод: Профессиональный многоголосый [iTunes]
    Субтитры: Английские
    Продолжительность: 01:40:21
  • Чувство справедливости (2016) BDRip 720p | iTunes Чувство справедливости (2016) BDRip 720p | iTunes Чувство справедливости (2016) BDRip 720p | iTunes
  • Общее
    Уникальный идентификатор : 190195536964702020436106773004279236298 (0x8F1653F757F23C38B86774D6E87A46CA)
    Полное имя : D:\загрузки\Equity.2016.P.BDRip.720p.mkv
    Формат : Matroska
    Версия формата : Version 2
    Размер файла : 4,16 Гбайт
    Продолжительность : 1 ч. 40 м.
    Общий поток : 5938 Кбит/сек
    Дата кодирования : UTC 2016-12-11 22:45:34
    Программа кодирования : mkvmerge v7.8.0 ('River Man') 32bit built on Apr 3 2015 12:11:22
    Библиотека кодирования : libebml v1.3.1 + libmatroska v1.4.2

    Видео
    Идентификатор : 1
    Формат : AVC
    Формат/Информация : Advanced Video Codec
    Профиль формата : High@L4.1
    Параметр CABAC формата : Да
    Параметр ReFrames формата : 9 кадров
    Идентификатор кодека : V_MPEG4/ISO/AVC
    Продолжительность : 1 ч. 40 м.
    Битрейт : 3926 Кбит/сек
    Ширина : 1280 пикселей
    Высота : 690 пикселей
    Соотношение сторон : 1,85:1
    Режим частоты кадров : Постоянный
    Частота кадров : 23,976 кадра/сек
    Цветовое пространство : YUV
    Субдискретизация насыщенности : 4:2:0
    Битовая глубина : 8 бит
    Тип развёртки : Прогрессивная
    Бит/(Пиксели*Кадры) : 0.185
    Размер потока : 2,75 Гбайт (66%)
    Библиотека кодирования : x264 core 142 r2431+42 c69a006 tMod [8-bit@4:2:0 X86_64]
    Настройки программы : cabac=1 / ref=9 / deblock=1:-3:-3 / analyse=0x3:0x113 / me=umh / subme=10 / psy=1 / fade_compensate=0.00 / psy_rd=1.00:0.05 / mixed_ref=1 / me_range=32 / chroma_me=1 / trellis=2 / 8x8dct=1 / cqm=0 / deadzone=21,11 / fast_pskip=0 / chroma_qp_offset=-2 / threads=12 / lookahead_threads=2 / sliced_threads=0 / nr=0 / decimate=1 / interlaced=0 / bluray_compat=0 / constrained_intra=0 / fgo=0 / bframes=8 / b_pyramid=2 / b_adapt=2 / b_bias=0 / direct=3 / weightb=1 / open_gop=0 / weightp=2 / keyint=250 / keyint_min=23 / scenecut=40 / intra_refresh=0 / rc_lookahead=40 / rc=crf / mbtree=0 / crf=17.0000 / qcomp=0.60 / qpmin=0:0:0 / qpmax=69:69:69 / qpstep=4 / vbv_maxrate=30000 / vbv_bufsize=30000 / crf_max=0.0 / nal_hrd=none / filler=0 / ip_ratio=1.40 / pb_ratio=1.30 / aq=3:1.00 / aq-sensitivity=10.00 / aq-factor=1.00:1.00:1.00 / aq2=0 / aq3=0
    Язык : English
    Default : Да
    Forced : Нет
    Коэффициенты матрицы : BT.709

    Аудио #1
    Идентификатор : 2
    Формат : AC-3
    Формат/Информация : Audio Coding 3
    Расширение режима : CM (complete main)
    Параметр Endianness формата : Big
    Идентификатор кодека : A_AC3
    Продолжительность : 1 ч. 40 м.
    Вид битрейта : Постоянный
    Битрейт : 384 Кбит/сек
    Каналы : 6 каналов
    Расположение каналов : Front: L C R, Side: L R, LFE
    Частота : 48,0 КГц
    Битовая глубина : 16 бит
    Метод сжатия : С потерями
    Размер потока : 276 Мбайт (6%)
    Язык : Russian
    Default : Да
    Forced : Нет

    Аудио #2
    Идентификатор : 3
    Формат : DTS
    Формат/Информация : Digital Theater Systems
    Режим : 16
    Параметр Endianness формата : Big
    Идентификатор кодека : A_DTS
    Продолжительность : 1 ч. 40 м.
    Вид битрейта : Постоянный
    Битрейт : 1509 Кбит/сек
    Каналы : 6 каналов
    Расположение каналов : Front: L C R, Side: L R, LFE
    Частота : 48,0 КГц
    Битовая глубина : 24 бит
    Метод сжатия : С потерями
    Размер потока : 1,06 Гбайт (25%)
    Язык : English
    Default : Нет
    Forced : Нет

    Текст
    Идентификатор : 4
    Формат : UTF-8
    Идентификатор кодека : S_TEXT/UTF8
    Идентификатор кодека/Информация : UTF-8 Plain Text
    Язык : English
    Default : Нет
    Forced : Нет

    Меню
    00:00:00.000 : en:Chapter 01
    00:06:04.458 : en:Chapter 02
    00:11:40.625 : en:Chapter 03
    00:17:12.375 : en:Chapter 04
    00:23:18.625 : en:Chapter 05
    00:30:05.458 : en:Chapter 06
    00:35:59.792 : en:Chapter 07
    00:45:04.458 : en:Chapter 08
    00:49:15.417 : en:Chapter 09
    00:56:11.250 : en:Chapter 10
    01:01:18.042 : en:Chapter 11
    01:06:22.417 : en:Chapter 12
    01:10:49.458 : en:Chapter 13
    01:16:26.500 : en:Chapter 14
    01:21:57.375 : en:Chapter 15
    01:29:13.000 : en:Chapter 16
10.0 из 10
голосов: 1
/10
/10
karta 12-12-2016, 01:53
Информация
Посетители, находящиеся в группе Гости, не могут оставлять комментарии к данной публикации.