Панель пользователя
Регистрация

Воспользуйтесь социальными сетями для входа на https://freerutor.com

vk odnoklassniki facebook mailru yandex google
Рекомендуем
Счетчик
Голосуй за нас
Популярное
Товары интернет магазина
загрузка...

Чудо на Гудзоне (2016) Blu-Ray Remux 1080p | iTunes

Чудо на Гудзоне (2016) Blu-Ray Remux 1080p | iTunes
Участники торрент обмена
Сидов Пиров Скачали
14 1 1353
Характеристика
Размер Файлы
20.72 GB
Релиз группа
Поделиться раздачей
Фильмы (720,1080,Blu-Ray)
Название: Чудо на Гудзоне
Оригинальное название: Sully
Жанр: Драма, биография
Выпущено: США, FilmNation Entertainment, Flashlight Films, Warner Bros. Pictures, The Kennedy/Marshall Company
Режиссер: Клинт Иствуд
В ролях: Том Хэнкс, Аарон Экхарт, Валери Махаффей, Делфи Хэррингтон, Майк О`Мэлли, Джейми Шеридан, Анна Ганн, Холт МакКэллани, Ахмед Хуссэйн, Лора Линни
Краткое описание: Герой Том Хэнкса - рядовой лётчик-профессионал, которому в сложнейшей ситуации пришлось принять единственно правильное решение, которое оправдалось конечным результатом – посадкой аварийного самолёта с пассажирами на воды Гудзона. Так, своими действиями летчику удалось спасти 155 человеческих жизней! И, тем не менее, сегодня ему приходится доказывать правоту этого выбора, внешне оставаясь спокойным и невозмутимым, несмотря на пережитое потрясение. Он уверен - только спокойствием, выдержкой и хладнокровием можно перевесить чашу мнения членов комиссии на свою сторону – сторону профессионального выбора и действия. И только ему одному известно, как даются и чего стоят эти спокойствие и уравновешенность. Оправданно ли рисковал ли он людскими жизнями? Чтобы их спасти, у него просто не было другого выхода.
  • Видео: MPEG-4 AVC, 1920x1080, 23.7 Mbit/s, 23.976 fps
    Аудио: Русский (AC3, 6 ch, 384 Кбит/с), английский (TrueHD, 8 ch, 6798 Кбит/с)
    Продолжительность: 01:35:50
    Перевод: Дублированный (iTunes)
    Субтитры: Русские (форсированные), английские
  • Чудо на Гудзоне (2016) Blu-Ray Remux 1080p | iTunes Чудо на Гудзоне (2016) Blu-Ray Remux 1080p | iTunes Чудо на Гудзоне (2016) Blu-Ray Remux 1080p | iTunes
  • Mediainfo

    General
    Unique ID : 214858786341288881737431711227888424740 (0xA1A44C0B018B6EDFAAA0ACCDC35A5724)
    Complete name : G:VideoSully.2016.BDREMUX.1080p.ExKinoRay.mkv
    Format : Matroska
    Format version : Version 4 / Version 2
    File size : 20.7 GiB
    Duration : 1 h 35 min
    Overall bit rate mode : Variable
    Overall bit rate : 31.0 Mb/s
    Movie name : Sully.2016 build ***селезень***
    Encoded date : UTC 2016-12-06 23:29:36
    Writing application : mkvmerge v8.3.0 ('Over the Horizon') 64bit
    Writing library : libebml v1.3.1 + libmatroska v1.4.2

    Video
    ID : 1
    Format : AVC
    Format/Info : Advanced Video Codec
    Format profile : High@L4.1
    Format settings, CABAC : Yes
    Format settings, ReFrames : 4 frames
    Codec ID : V_MPEG4/ISO/AVC
    Duration : 1 h 35 min
    Bit rate mode : Variable
    Bit rate : 23.7 Mb/s
    Maximum bit rate : 30.0 Mb/s
    Width : 1 920 pixels
    Height : 1 080 pixels
    Display aspect ratio : 16:9
    Frame rate mode : Constant
    Frame rate : 23.976 (24000/1001) FPS
    Color space : YUV
    Chroma subsampling : 4:2:0
    Bit depth : 8 bits
    Scan type : Progressive
    Bits/(Pixel*Frame) : 0.477
    Stream size : 15.9 GiB (77%)
    Title : Sully.2016 build ***селезень***
    Language : English
    Default : Yes
    Forced : No

    Audio #1
    ID : 2
    Format : AC-3
    Format/Info : Audio Coding 3
    Mode extension : CM (complete main)
    Format settings, Endianness : Big
    Codec ID : A_AC3
    Duration : 1 h 35 min
    Bit rate mode : Constant
    Bit rate : 384 kb/s
    Channel(s) : 6 channels
    Channel positions : Front: L C R, Side: L R, LFE
    Sampling rate : 48.0 kHz
    Frame rate : 31.250 FPS (1536 spf)
    Bit depth : 16 bits
    Compression mode : Lossy
    Stream size : 263 MiB (1%)
    Title : iTunes
    Language : Russian
    Default : Yes
    Forced : No

    Audio #2
    ID : 3
    Format : Atmos / TrueHD
    Codec ID : A_TRUEHD
    Duration : 1 h 35 min
    Bit rate mode : Variable
    Bit rate : 6 798 kb/s
    Maximum bit rate : 12.0 Mb/s
    Channel(s) : Object Based / 8 channels
    Channel positions : Object Based / Front: L C R, Side: L R, Back: L R, LFE
    Sampling rate : / 48.0 kHz
    Frame rate : 1 200.000 FPS (40 spf)
    Compression mode : Lossless
    Stream size : 4.55 GiB (22%)
    Title : Original
    Language : English
    Default : No
    Forced : No

    Text #1
    ID : 4
    Format : UTF-8
    Codec ID : S_TEXT/UTF8
    Codec ID/Info : UTF-8 Plain Text
    Duration : 1 h 28 min
    Bit rate : 4 b/s
    Count of elements : 45
    Stream size : 2.69 KiB (0%)
    Title : Forced
    Language : Russian
    Default : Yes
    Forced : No

    Text #2
    ID : 5
    Format : UTF-8
    Codec ID : S_TEXT/UTF8
    Codec ID/Info : UTF-8 Plain Text
    Duration : 1 h 31 min
    Bit rate : 71 b/s
    Count of elements : 1524
    Stream size : 48.3 KiB (0%)
    Title : Full
    Language : English
    Default : No
    Forced : No

    Menu
    00:00:00.000 : en:Chapter 1
    00:11:12.505 : en:Chapter 2
    00:18:06.168 : en:Chapter 3
    00:29:57.921 : en:Chapter 4
    00:38:55.416 : en:Chapter 5
    00:49:20.749 : en:Chapter 6
    01:00:50.855 : en:Chapter 7
    01:08:16.383 : en:Chapter 8
    01:18:09.810 : en:Chapter 9
    01:26:59.797 : en:Chapter 10
7.8 из 10
голосов: 4
/10
/10
Alik 7-12-2016, 09:30
Информация
Посетители, находящиеся в группе Гости, не могут оставлять комментарии к данной публикации.