Панель пользователя
Регистрация

Воспользуйтесь социальными сетями для входа на https://freerutor.com

vk odnoklassniki facebook mailru yandex google
Рекомендуем
Счетчик
Голосуй за нас
Популярное
Товары интернет магазина
загрузка...

Моана (2016) TS

Моана (2016) TS
Участники торрент обмена
Сидов Пиров Скачали
243 15 17647
Характеристика
Размер Файлы
1.86 GB
Поделиться раздачей
Мультфильмы
Наименование: Моана
Оригинальное наименование: Moana
Произведено: США
Категория: мультфильм, мюзикл, фэнтези, комедия, приключения, семейный
Режиссер постановщик: Рон Клементс, Дон Холл, Джон Маскер
В главных ролях: Аулии Кравалхо, Дуэйн Джонсон, Рэйчел Хаус, Темуэра Моррисон, Джемейн Клемент, Николь Шерзингер, Алан Тьюдик, Оскар Кайтли, Трой Поламалу, Пуанани Кравальо
Краткое описание: Бесстрашная Моана, дочь вождя маленького племени на острове в Тихом океане, больше всего на свете мечтает о приключениях и решает отправиться в опасное морское путешествие. Вместе с некогда могущественным полубогом Мауи им предстоит пересечь океан, сразиться со страшными чудовищами и разрушить древнее заклятие.
  • Видео данные: XviD, 2392 Кбит/с, 720x328 (16:9)
    Аудио данные: Русский (AC3, 2 ch, 384 Кбит/с)
    Перевод: Дублированный
    Продолжительность: 01:33:44
    Примечание: Без рекламы! + Улучшено качество!
  • Моана (2016) TS Моана (2016) TS Моана (2016) TS
  • General
    Complete name : E:\Downloads\Moana.2016.HD-TS.AC3-DENZEL519.avi
    Format : AVI
    Format/Info : Audio Video Interleave
    File size : 1.86 GiB
    Duration : 1h 33mn
    Overall bit rate : 2 845 Kbps
    Writing library : VirtualDub build 34703/release

    Video
    ID : 0
    Format : MPEG-4 Visual
    Format profile : Simple@L3
    Format settings, BVOP : No
    Format settings, QPel : No
    Format settings, GMC : No warppoints
    Format settings, Matrix : Default (H.263)
    Codec ID : XVID
    Codec ID/Hint : XviD
    Duration : 1h 33mn
    Bit rate : 2 449 Kbps
    Width : 720 pixels
    Height : 328 pixels
    Display aspect ratio : 16:9
    Frame rate : 30.000 fps
    Color space : YUV
    Chroma subsampling : 4:2:0
    Bit depth : 8 bits
    Scan type : Progressive
    Compression mode : Lossy
    Bits/(Pixel*Frame) : 0.346
    Stream size : 1.60 GiB (86%)
    Writing library : XviD 1.2.1 (UTC 2008-12-04)

    Audio
    ID : 1
    Format : AC-3
    Format/Info : Audio Coding 3
    Mode extension : CM (complete main)
    Format settings, Endianness : Big
    Codec ID : 2000
    Duration : 1h 33mn
    Bit rate mode : Constant
    Bit rate : 384 Kbps
    Channel(s) : 2 channels
    Channel positions : Front: L R
    Sampling rate : 48.0 KHz
    Compression mode : Lossy
    Stream size : 257 MiB (13%)
    Alignment : Aligned on interleaves
    Interleave, duration : 33 ms (1.00 video frame)
    Interleave, preload duration : 512 ms
7.8 из 10
голосов: 4
/10
/10
DENZEL519 7-12-2016, 07:12
Информация
Посетители, находящиеся в группе Гости, не могут оставлять комментарии к данной публикации.