Панель пользователя
Регистрация

Воспользуйтесь социальными сетями для входа на https://freerutor.com

vk odnoklassniki facebook mailru yandex google
Популярное
Счетчик
Голосуй за нас
VIP на сайте
Популярное
Товары интернет магазина
загрузка...

Морган (2016) BDRip 1080p | iTunes

Морган (2016) BDRip 1080p | iTunes
Участники торрент обмена
Сидов Пиров Скачали
46 9 668
Характеристика
Размер Файлы
8.91 GB
Релиз группа
Поделиться раздачей
Фильмы (720,1080,Blu-Ray)
Наименование: Морган
Оригинальное наименование: Morgan
Категория: Ужасы, фантастика, триллер, драма, детектив
Произведено: США, Scott Free Productions
Режиссер постановщик: Люк Скотт
В главных ролях: Кейт Мара, Аня Тейлор-Джой, Роуз Лесли, Майкл Йар, Тоби Джонс, Крис Салливан, Бойд Холбрук, Винетт Робинсон, Мишель Йео, Брайан Кокс
Краткое описание: Сотрудница по устранению аварий отправляется в отдаленный секретный филиал, где должна расследовать и оценить потери от ужасной катастрофы. На месте она узнает, что случившееся было вызвано, казалось бы, невинным «человеком», чье существование само по себе является опасной тайной.
  • Видео данные: MPEG-4 AVC, 12000 kb/s, 1920x804
    Аудио данные: Russian: AC3, 384 kb/s (6 ch) / English: DTS, 1509 kb/s (6 ch)
    Перевод: Дублированный [iTunes]
    Субтитры: Русские, английские, украинские
    Продолжительность: 01:32:28
  • Морган (2016) BDRip 1080p | iTunes Морган (2016) BDRip 1080p | iTunes Морган (2016) BDRip 1080p | iTunes
  • x264 [info]: frame I:1055 Avg QP:14.03 size:271032
    x264 [info]: frame P:28694 Avg QP:15.69 size:103151
    x264 [info]: frame B:102423 Avg QP:16.63 size: 48962

    Format : Matroska
    Format version : Version 4 / Version 2
    File size : 8.91 GiB
    Duration : 1h 31mn
    Overall bit rate : 13.9 Mbps
    Movie name : Морган. (Tonik)
    Encoded date : UTC 2016-12-03 12:48:04
    Writing application : mkvmerge v7.1.0 ('Good Love') 64bit built on Jul 27 2014 13:06:55
    Writing library : libebml v1.3.0 + libmatroska v1.4.1
    _STATISTICS_WRITING_APP : mkvmerge v7.1.0 ('Good Love') 64bit built on Jul 27 2014 13:06:55
    _STATISTICS_WRITING_DATE_UTC : 2016-12-03 12:48:04
    _STATISTICS_TAGS : BPS DURATION NUMBER_OF_FRAMES NUMBER_OF_BYTES
    DURATION : 01:30:56.289000000
    NUMBER_OF_FRAMES : 1059
    NUMBER_OF_BYTES : 29970

    Video
    ID : 1
    Format : AVC
    Format/Info : Advanced Video Codec
    Format profile : High@L4.1
    Format settings, CABAC : Yes
    Format settings, ReFrames : 5 frames
    Codec ID : V_MPEG4/ISO/AVC
    Duration : 1h 31mn
    Bit rate : 12.0 Mbps
    Width : 1 920 pixels
    Height : 804 pixels
    Display aspect ratio : 2.40:1
    Frame rate mode : Constant
    Frame rate : 23.976 fps
    Color space : YUV
    Chroma subsampling : 4:2:0
    Bit depth : 8 bits
    Scan type : Progressive
    Bits/(Pixel*Frame) : 0.324
    Stream size : 7.52 GiB (84%)
    Writing library : x264 core 148 r2665kMod a01e339
    Encoding settings : cabac=1 / ref=5 / deblock=1:-3:-3 / analyse=0x3:0x133 / me=umh / subme=11 / psy=1 / fade_compensate=0.00 / psy_rd=0.85:0.00 / mixed_ref=1 / me_range=48 / chroma_me=1 / trellis=2 / 8x8dct=1 / cqm=0 / deadzone=21,11 / fast_pskip=0 / chroma_qp_offset=-2 / threads=24 / lookahead_threads=4 / sliced_threads=0 / nr=0 / decimate=0 / interlaced=0 / bluray_compat=0 / constrained_intra=0 / fgo=0 / bframes=8 / b_pyramid=2 / b_adapt=2 / b_bias=0 / direct=3 / weightb=1 / open_gop=0 / weightp=2 / keyint=240 / keyint_min=24 / scenecut=40 / intra_refresh=0 / rc=2pass / mbtree=0 / bitrate=12000 / ratetol=1.0 / qcomp=0.70 / qpmin=0 / qpmax=69 / qpstep=4 / cplxblur=20.0 / qblur=0.5 / ip_ratio=1.20 / pb_ratio=1.20 / aq=3:0.80
    Language : English
    Default : Yes
    Forced : No
    DURATION : 01:31:52.674000000
    NUMBER_OF_FRAMES : 132172
    NUMBER_OF_BYTES : 8260578416
    _STATISTICS_WRITING_APP : mkvmerge v7.1.0 ('Good Love') 64bit built on Jul 27 2014 13:06:55
    _STATISTICS_WRITING_DATE_UTC : 2016-12-03 12:48:04
    _STATISTICS_TAGS : BPS DURATION NUMBER_OF_FRAMES NUMBER_OF_BYTES

    Audio #1
    ID : 2
    Format : AC-3
    Format/Info : Audio Coding 3
    Mode extension : CM (complete main)
    Format settings, Endianness : Big
    Codec ID : A_AC3
    Duration : 1h 31mn
    Bit rate mode : Constant
    Bit rate : 384 Kbps
    Channel(s) : 6 channels
    Channel positions : Front: L C R, Side: L R, LFE
    Sampling rate : 48.0 KHz
    Bit depth : 16 bits
    Compression mode : Lossy
    Stream size : 252 MiB (3%)
    Title : iTunes
    Language : Russian
    Default : Yes
    Forced : No

    Audio #2
    ID : 3
    Format : DTS
    Format/Info : Digital Theater Systems
    Mode : 16
    Format settings, Endianness : Big
    Codec ID : A_DTS
    Duration : 1h 31mn
    Bit rate mode : Constant
    Bit rate : 1 509 Kbps
    Channel(s) : 6 channels
    Channel positions : Front: L C R, Side: L R, LFE
    Sampling rate : 48.0 KHz
    Bit depth : 24 bits
    Compression mode : Lossy
    Stream size : 992 MiB (11%)
    Language : English
    Default : No
    Forced : No

    Text #1
    ID : 4
    Format : UTF-8
    Codec ID : S_TEXT/UTF8
    Codec ID/Info : UTF-8 Plain Text
    Title : Forced
    Language : Russian
    Default : Yes
    Forced : No

    Text #2
    ID : 5
    Format : UTF-8
    Codec ID : S_TEXT/UTF8
    Codec ID/Info : UTF-8 Plain Text
    Language : Russian
    Default : No
    Forced : No

    Text #3
    ID : 6
    Format : UTF-8
    Codec ID : S_TEXT/UTF8
    Codec ID/Info : UTF-8 Plain Text
    Title : Forced
    Language : Ukrainian
    Default : No
    Forced : No

    Text #4
    ID : 7
    Format : UTF-8
    Codec ID : S_TEXT/UTF8
    Codec ID/Info : UTF-8 Plain Text
    Language : Ukrainian
    Default : No
    Forced : No

    Text #5
    ID : 8
    Format : UTF-8
    Codec ID : S_TEXT/UTF8
    Codec ID/Info : UTF-8 Plain Text
    Title : Forced
    Language : English
    Default : No
    Forced : No

    Text #6
    ID : 9
    Format : UTF-8
    Codec ID : S_TEXT/UTF8
    Codec ID/Info : UTF-8 Plain Text
    Language : English
    Default : No
    Forced : No

    Menu
    00:00:00.000 : en:00:00:00.000
    00:03:43.098 : en:00:03:43.098
    00:07:22.400 : en:00:07:22.400
    00:11:41.784 : en:00:11:41.784
    00:16:04.338 : en:00:16:04.338
    00:20:30.271 : en:00:20:30.271
    00:25:36.326 : en:00:25:36.326
    00:28:45.515 : en:00:28:45.515
    00:34:20.267 : en:00:34:20.267
    00:37:17.861 : en:00:37:17.861
    00:40:46.110 : en:00:40:46.110
    00:43:47.124 : en:00:43:47.124
    00:48:14.225 : en:00:48:14.225
    00:51:28.752 : en:00:51:28.752
    00:54:45.991 : en:00:54:45.991
    00:59:51.046 : en:00:59:51.046
    01:03:44.404 : en:01:03:44.404
    01:08:01.619 : en:01:08:01.619
    01:11:43.758 : en:01:11:43.758
    01:13:46.422 : en:01:13:46.422
    01:17:03.702 : en:01:17:03.702
    01:20:01.672 : en:01:20:01.672
    01:22:32.531 : en:01:22:32.531
    01:25:10.939 : en:01:25:10.939
7.9 из 10
голосов: 8
/10
/10
Раздачу отредактировал: karta - 3-12-2016, 18:36
По причине: (Замена на рип лучшего качества.)
karta 3-12-2016, 18:35
Информация
Посетители, находящиеся в группе Гости, не могут оставлять комментарии к данной публикации.