Панель пользователя
Регистрация

Воспользуйтесь социальными сетями для входа на https://freerutor.com

vk odnoklassniki facebook mailru yandex google
Популярное
Счетчик
Голосуй за нас
VIP на сайте
Популярное
Товары интернет магазина
загрузка...

Не дыши (2016) Blu-Ray Remux 1080p | iTunes

Не дыши (2016) Blu-Ray Remux 1080p | iTunes
Участники торрент обмена
Сидов Пиров Скачали
3 4 199
Характеристика
Размер Файлы
20.78 GB
Релиз группа
Поделиться раздачей
Фильмы (720,1080,Blu-Ray)
Наименование: Не дыши
Оригинальное наименование: Don't Breathe
Категория: Триллер, криминал, ужасы
Произведено: США, Ghost House Pictures
Режиссер постановщик: Федерико Альварес
В главных ролях: Стивен Лэнг, Джейн Леви, Дилан Миннетт, Дэниэл Дзоватто, Эмма Берковичи, Франциска Тёрёчик, Кристиан Сахиа, Катя Бокор, Сергей Онопко, Оливия Гиллис
Краткое описание: Грабители забираются в дом одинокого слепого старика с целью украсть огромную сумму, которая, по слухам, спрятана где-то внутри. Казалось бы — что может быть проще, чем вынести деньги из дома практически беспомощного человека. Но они жестоко ошибаются: преследуемый становится преследователем. И тайна, которую он хранит, гораздо страшнее, чем обычные пенсионные накопления.
  • Видео данные: MPEG-4 AVC, 24.9 Мбит/с, 1920x1080
    Аудио данные: Русский (AC3, 6 ch, 384 Кбит/с), (AC3, 6 ch, 640 Кбит/с), (DTS-HD MA, 6 ch, 3840 Кбит/с), английский (DTS-HD MA, 6 ch, 3840 Кбит/с)
    Перевод: Дублированный [iTunes] , авторский [Есарев]
    Продолжительность: 01:28:32
    Субтитры: Русские, английские
  • Не дыши (2016) Blu-Ray Remux 1080p | iTunes Не дыши (2016) Blu-Ray Remux 1080p | iTunes Не дыши (2016) Blu-Ray Remux 1080p | iTunes
  • General
    Unique ID : 244007194998264572200463170891621863883 (0xB792138BA0DA8F3996AD2C79FD0C11CB)
    Complete name : G:\Video\Dont.Breathe.2016.D.AVO.BDREMUX.1080p.ExKinoRay.mkv
    Format : Matroska
    Format version : Version 4 / Version 2
    File size : 20.8 GiB
    Duration : 1 h 28 min
    Overall bit rate mode : Variable
    Overall bit rate : 33.6 Mb/s
    Movie name : Don't.Breathe.2016. build by***селезень***
    Encoded date : UTC 2016-11-26 11:11:05
    Writing application : mkvmerge v8.3.0 ('Over the Horizon') 64bit
    Writing library : libebml v1.3.1 + libmatroska v1.4.2

    Video
    ID : 1
    Format : AVC
    Format/Info : Advanced Video Codec
    Format profile : High@L4.1
    Format settings, CABAC : Yes
    Format settings, ReFrames : 2 frames
    Format settings, GOP : M=1, N=10
    Codec ID : V_MPEG4/ISO/AVC
    Duration : 1 h 28 min
    Bit rate mode : Variable
    Bit rate : 24.9 Mb/s
    Width : 1 920 pixels
    Height : 1 080 pixels
    Display aspect ratio : 16:9
    Frame rate mode : Constant
    Frame rate : 23.976 (24000/1001) FPS
    Color space : YUV
    Chroma subsampling : 4:2:0
    Bit depth : 8 bits
    Scan type : Progressive
    Bits/(Pixel*Frame) : 0.502
    Stream size : 15.4 GiB (74%)
    Title : Don't.Breathe.2016. build by***селезень***
    Language : English
    Default : Yes
    Forced : No

    Audio #1
    ID : 2
    Format : AC-3
    Format/Info : Audio Coding 3
    Mode extension : CM (complete main)
    Format settings, Endianness : Big
    Codec ID : A_AC3
    Duration : 1 h 28 min
    Bit rate mode : Constant
    Bit rate : 384 kb/s
    Channel(s) : 6 channels
    Channel positions : Front: L C R, Side: L R, LFE
    Sampling rate : 48.0 kHz
    Frame rate : 31.250 FPS (1536 spf)
    Bit depth : 16 bits
    Compression mode : Lossy
    Stream size : 243 MiB (1%)
    Title : Dub [iTunes]
    Language : Russian
    Default : Yes
    Forced : No

    Audio #2
    ID : 3
    Format : AC-3
    Format/Info : Audio Coding 3
    Mode extension : CM (complete main)
    Format settings, Endianness : Big
    Codec ID : A_AC3
    Duration : 1 h 28 min
    Bit rate mode : Constant
    Bit rate : 640 kb/s
    Channel(s) : 6 channels
    Channel positions : Front: L C R, Side: L R, LFE
    Sampling rate : 48.0 kHz
    Frame rate : 31.250 FPS (1536 spf)
    Bit depth : 16 bits
    Compression mode : Lossy
    Stream size : 405 MiB (2%)
    Title : AVO-AC3 [Esarev]
    Language : Russian
    Default : No
    Forced : No

    Audio #3
    ID : 4
    Format : DTS
    Format/Info : Digital Theater Systems
    Format profile : MA / Core
    Mode : 16
    Format settings, Endianness : Big
    Codec ID : A_DTS
    Duration : 1 h 28 min
    Bit rate mode : Variable / Constant
    Bit rate : 3 840 kb/s / 1 509 kb/s
    Channel(s) : 6 channels
    Channel positions : Front: L C R, Side: L R, LFE
    Sampling rate : 48.0 kHz
    Frame rate : 93.750 FPS (512 spf)
    Bit depth : 24 bits
    Compression mode : Lossless / Lossy
    Stream size : 2.36 GiB (11%)
    Title : AVO-DTS-HD MA [Esarev]
    Language : Russian
    Default : No
    Forced : No

    Audio #4
    ID : 5
    Format : DTS
    Format/Info : Digital Theater Systems
    Format profile : MA / Core
    Mode : 16
    Format settings, Endianness : Big
    Codec ID : A_DTS
    Duration : 1 h 28 min
    Bit rate mode : Variable / Constant
    Bit rate : 3 840 kb/s / 1 509 kb/s
    Channel(s) : 6 channels
    Channel positions : Front: L C R, Side: L R, LFE
    Sampling rate : 48.0 kHz
    Frame rate : 93.750 FPS (512 spf)
    Bit depth : 24 bits
    Compression mode : Lossless / Lossy
    Stream size : 2.36 GiB (11%)
    Title : Original
    Language : English
    Default : No
    Forced : No

    Text #1
    ID : 6
    Format : UTF-8
    Codec ID : S_TEXT/UTF8
    Codec ID/Info : UTF-8 Plain Text
    Duration : 31 min 25 s
    Bit rate : 1 b/s
    Count of elements : 8
    Stream size : 283 Bytes (0%)
    Title : Forced [iTunes]
    Language : Russian
    Default : Yes
    Forced : No

    Text #2
    ID : 7
    Format : UTF-8
    Codec ID : S_TEXT/UTF8
    Codec ID/Info : UTF-8 Plain Text
    Duration : 1 h 22 min
    Bit rate : 36 b/s
    Count of elements : 519
    Stream size : 22.1 KiB (0%)
    Title : Full [iTunes]
    Language : Russian
    Default : No
    Forced : No

    Text #3
    ID : 8
    Format : UTF-8
    Codec ID : S_TEXT/UTF8
    Codec ID/Info : UTF-8 Plain Text
    Duration : 1 h 20 min
    Bit rate : 24 b/s
    Count of elements : 601
    Stream size : 14.6 KiB (0%)
    Title : Full
    Language : English
    Default : No
    Forced : No

    Text #4
    ID : 9
    Format : UTF-8
    Codec ID : S_TEXT/UTF8
    Codec ID/Info : UTF-8 Plain Text
    Duration : 1 h 25 min
    Bit rate : 34 b/s
    Count of elements : 1076
    Stream size : 21.9 KiB (0%)
    Title : SDH
    Language : English
    Default : No
    Forced : No

    Menu
    00:00:00.000 : en:00:00:00.000
    00:07:50.917 : en:00:07:50.917
    00:15:23.208 : en:00:15:23.208
    00:24:40.625 : en:00:24:40.625
    00:38:49.833 : en:00:38:49.833
    00:43:41.792 : en:00:43:41.792
    00:58:08.958 : en:00:58:08.958
    01:07:19.333 : en:01:07:19.333
    01:13:50.417 : en:01:13:50.417
    01:17:30.167 : en:01:17:30.167
    01:35:39.292 : en:01:35:39.292
    01:41:33.542 : en:01:41:33.542
7.8 из 10
голосов: 4
/10
/10
616759 26-11-2016, 15:53
Информация
Посетители, находящиеся в группе Гости, не могут оставлять комментарии к данной публикации.