Панель пользователя
Регистрация

Воспользуйтесь социальными сетями для входа на https://freerutor.com

vk odnoklassniki facebook mailru yandex google
Популярное
Счетчик
Голосуй за нас
VIP на сайте
Популярное
Товары интернет магазина
загрузка...

Ледокол (2016) WEB-DLRip-AVC | iTunes

Ледокол (2016) WEB-DLRip-AVC | iTunes
Участники торрент обмена
Сидов Пиров Скачали
210 10 3757
Характеристика
Размер Файлы
2.19 GB
Релиз группа
Поделиться раздачей
Фильмы (AVC)
Наименование: Ледокол
Категория: Драма
Произведено: Россия / Профит
Режиссер постановщик: Николай Хомерики
В главных ролях: Пётр Фёдоров, Сергей Пускепалис, Анна Михалкова, Ольга Филимонова, Александр Яценко, Александр Паль, Виталий Хаев, Алексей Барабаш, Дмитрий Муляр, Артур Чиргадзе
Краткое описание: Основано на реальных событиях. 1985 год. Навстречу ледоколу «Михаил Громов» движется огромный айсберг. Уходя от столкновения с ним, судно попадает в ледовый плен и оказывается в вынужденном дрейфе вблизи побережья Антарктиды. Вокруг зловещая тишина и жуткий холод. Горючее на исходе... Нервы на пределе... И даже если можно было бы уйти - деваться все равно некуда. У командования ледокола нет права на ошибку. Одно неверное решение - и тяжелые льды раздавят судно...
  • Видео данные: MPEG-4 AVC, 2141 Кбит/с, 1024x428
    Аудио данные: AC3, 6 ch, 384 Кбит/с
    Перевод: Оригинал [iTunes]
    Продолжительность: 02:03:53
  • Ледокол (2016) WEB-DLRip-AVC | iTunes Ледокол (2016) WEB-DLRip-AVC | iTunes Ледокол (2016) WEB-DLRip-AVC | iTunes
  • Формат : Matroska
    Версия формата : Version 2
    Размер файла : 2,19 Гбайт
    Продолжительность : 2 ч. 3 м.
    Общий поток : 2527 Кбит/сек
    Название фильма : Ledokol (2016)
    Дата кодирования : UTC 2016-11-22 00:34:42
    Программа кодирования : mkvmerge v5.3.0 ('I could have danced') built on Feb 9 2012 10:38:07
    Библиотека кодирования : libebml v1.2.3 + libmatroska v1.3.0
    Attachment : Yes

    Видео
    Идентификатор : 1
    Формат : AVC
    Формат/Информация : Advanced Video Codec
    Профиль формата : High@L4.1
    Параметр CABAC формата : Да
    Параметр ReFrames формата : 12 кадров
    Идентификатор кодека : V_MPEG4/ISO/AVC
    Продолжительность : 2 ч. 3 м.
    Битрейт : 2141 Кбит/сек
    Ширина : 1024 пикселя
    Высота : 428 пикселей
    Соотношение сторон : 2,40:1
    Режим частоты кадров : Постоянный
    Частота кадров : 24,000 кадра/сек
    Цветовое пространство : YUV
    Субдискретизация насыщенности : 4:2:0
    Битовая глубина : 8 бит
    Тип развёртки : Прогрессивная
    Бит/(Пиксели*Кадры) : 0.204
    Размер потока : 1,81 Гбайт (83%)
    Библиотека кодирования : x264 core 146 r2538 121396c
    Настройки программы : cabac=1 / ref=12 / deblock=1:-3:-3 / analyse=0x3:0x133 / me=umh / subme=11 / psy=1 / psy_rd=1.00:0.15 / mixed_ref=1 / me_range=32 / chroma_me=1 / trellis=2 / 8x8dct=1 / cqm=0 / deadzone=21,11 / fast_pskip=0 / chroma_qp_offset=-3 / threads=12 / lookahead_threads=2 / sliced_threads=0 / nr=0 / decimate=0 / interlaced=0 / bluray_compat=0 / constrained_intra=0 / bframes=8 / b_pyramid=2 / b_adapt=2 / b_bias=0 / direct=3 / weightb=1 / open_gop=0 / weightp=2 / keyint=240 / keyint_min=23 / scenecut=40 / intra_refresh=0 / rc_lookahead=40 / rc=2pass / mbtree=0 / bitrate=2141 / ratetol=1.0 / qcomp=0.60 / qpmin=0 / qpmax=69 / qpstep=4 / cplxblur=20.0 / qblur=0.5 / vbv_maxrate=50000 / vbv_bufsize=62500 / nal_hrd=none / filler=0 / ip_ratio=1.40 / pb_ratio=1.30 / aq=1:0.80
    Default : Да
    Forced : Нет

    Аудио
    Идентификатор : 2
    Формат : AC-3
    Формат/Информация : Audio Coding 3
    Расширение режима : CM (complete main)
    Параметр Endianness формата : Big
    Идентификатор кодека : A_AC3
    Продолжительность : 2 ч. 3 м.
    Вид битрейта : Постоянный
    Битрейт : 384 Кбит/сек
    Каналы : 6 каналов
    Расположение каналов : Front: L C R, Side: L R, LFE
    Частота : 48,0 КГц
    Битовая глубина : 16 бит
    Метод сжатия : С потерями
    Размер потока : 340 Мбайт (15%)
    Заголовок : AC3 5.1 @ 384 kbps
    Язык : Russian
    Default : Да
    Forced : Нет

    Меню
    00:00:00.000 : en:1
    00:06:27.958 : en:2
    00:12:44.083 : en:3
    00:19:01.791 : en:4
    00:25:05.957 : en:5
    00:30:53.832 : en:6
    00:36:47.373 : en:7
    00:43:08.331 : en:8
    00:48:55.122 : en:9
    00:57:04.288 : en:10
    01:03:47.954 : en:11
    01:09:57.204 : en:12
    01:16:17.120 : en:13
    01:22:14.828 : en:14
    01:27:31.078 : en:15
    01:34:19.536 : en:16
    01:41:46.786 : en:17
    01:49:49.286 : en:18
    01:56:45.286 : en:19
4.6 из 10
голосов: 5
/10
/10
grab777 23-11-2016, 00:49
Информация
Посетители, находящиеся в группе Гости, не могут оставлять комментарии к данной публикации.