Панель пользователя
Регистрация

Воспользуйтесь социальными сетями для входа на https://freerutor.com

vk odnoklassniki facebook mailru yandex google
Популярное
Счетчик
Голосуй за нас
VIP на сайте
Популярное
Товары интернет магазина
загрузка...

Джейсон Борн (2016) BDRip-AVC | Лицензия | R.G.Resident

Джейсон Борн (2016) BDRip-AVC | Лицензия | R.G.Resident
Участники торрент обмена
Сидов Пиров Скачали
27 1 428
Характеристика
Размер Файлы
3.34 GB
Релиз группа
Поделиться раздачей
Фильмы (AVC)
Наименование: Джейсон Борн
Оригинальное наименование: Jason Bourne
Категория: боевик, триллер
Произведено: Великобритания, Китай, США
Режиссер постановщик: Пол Гринграсс
В главных ролях: Мэтт Дэймон, Алисия Викандер, Томми Ли Джонс, Венсан Кассель, Джулия Стайлз, Риз Ахмед, Ато Эссонда, Скотт Шеперд, Билл Кэмп, Винцец Кифер
Краткое описание: Мир на грани катастрофы, а значит пришло время ему вернуться. Неаполь, Мюнхен, Нью-Йорк - его имя знают повсюду. Элитный суперагент, лучший из лучших, даже в Лас-Вегасе игра пойдет по его правилам. Он - Джейсон Борн.
  • Видео данные: MPEG-4 AVC, 2987 Кбит/с, 1024x428
    Аудио данные: Русский (AC3, 6 ch, 448 Кбит/с), английский (AC3, 6 ch, 448 Кбит/с)
    Перевод: Дубляж - [BD CEE]
    Продолжительность: 02:03:11
    Субтитры: русские (Forced, Full), украинские (Forced, Full), английские (Full, SDH, SDH-COLORED)
  • Джейсон Борн (2016) BDRip-AVC | Лицензия | R.G.Resident Джейсон Борн (2016) BDRip-AVC | Лицензия | R.G.Resident Джейсон Борн (2016) BDRip-AVC | Лицензия | R.G.Resident
  • General
    Unique ID : 220376855010097942500051701703097406586 (0xA5CB09D5541294FC90BB9D9FC077547A)
    Complete name : D:\download\Jason.Bourne.2016.BDRip-AVC by schultz R.G.Resident.mkv
    Format : Matroska
    Format version : Version 4 / Version 2
    File size : 3.34 GiB
    Duration : 2 h 3 min
    Overall bit rate : 3 883 kb/s
    Encoded date : UTC 2016-11-21 06:33:34
    Writing application : mkvmerge v8.9.0 ('Father Daughter') 64bit
    Writing library : libebml v1.3.3 + libmatroska v1.4.4

    Video
    ID : 1
    Format : AVC
    Format/Info : Advanced Video Codec
    Format profile : High@L4.1
    Format settings, CABAC : Yes
    Format settings, ReFrames : 12 frames
    Codec ID : V_MPEG4/ISO/AVC
    Duration : 2 h 3 min
    Bit rate : 2 987 kb/s
    Width : 1 024 pixels
    Height : 428 pixels
    Display aspect ratio : 2.40:1
    Frame rate mode : Constant
    Frame rate : 23.976 (23976/1000) FPS
    Color space : YUV
    Chroma subsampling : 4:2:0
    Bit depth : 8 bits
    Scan type : Progressive
    Bits/(Pixel*Frame) : 0.284
    Stream size : 2.57 GiB (77%)
    Writing library : x264 core 146 r2538 121396c
    Encoding settings : cabac=1 / ref=12 / deblock=1:-3:-3 / analyse=0x3:0x113 / me=umh / subme=11 / psy=1 / psy_rd=1.00:0.00 / mixed_ref=1 / me_range=48 / chroma_me=1 / trellis=2 / 8x8dct=1 / cqm=0 / deadzone=21,11 / fast_pskip=0 / chroma_qp_offset=-2 / threads=12 / lookahead_threads=3 / sliced_threads=0 / nr=0 / decimate=0 / interlaced=0 / bluray_compat=0 / constrained_intra=0 / bframes=11 / b_pyramid=2 / b_adapt=2 / b_bias=0 / direct=3 / weightb=1 / open_gop=0 / weightp=2 / keyint=240 / keyint_min=23 / scenecut=40 / intra_refresh=0 / rc_lookahead=40 / rc=2pass / mbtree=1 / bitrate=2987 / ratetol=1.0 / qcomp=0.60 / qpmin=0 / qpmax=69 / qpstep=4 / cplxblur=20.0 / qblur=0.5 / vbv_maxrate=50000 / vbv_bufsize=62500 / nal_hrd=none / filler=0 / ip_ratio=1.40 / aq=1:1.00
    Language : English
    Default : Yes
    Forced : No

    Audio #1
    ID : 2
    Format : AC-3
    Format/Info : Audio Coding 3
    Mode extension : CM (complete main)
    Format settings, Endianness : Big
    Codec ID : A_AC3
    Duration : 2 h 3 min
    Bit rate mode : Constant
    Bit rate : 448 kb/s
    Channel(s) : 6 channels
    Channel positions : Front: L C R, Side: L R, LFE
    Sampling rate : 48.0 kHz
    Frame rate : 31.250 FPS (1536 spf)
    Compression mode : Lossy
    Stream size : 395 MiB (12%)
    Language : Russian
    Default : Yes
    Forced : No

    Audio #2
    ID : 3
    Format : AC-3
    Format/Info : Audio Coding 3
    Mode extension : CM (complete main)
    Format settings, Endianness : Big
    Codec ID : A_AC3
    Duration : 2 h 3 min
    Bit rate mode : Constant
    Bit rate : 448 kb/s
    Channel(s) : 6 channels
    Channel positions : Front: L C R, Side: L R, LFE
    Sampling rate : 48.0 kHz
    Frame rate : 31.250 FPS (1536 spf)
    Compression mode : Lossy
    Stream size : 395 MiB (12%)
    Language : English
    Default : No
    Forced : No

    Text #1
    ID : 4
    Format : UTF-8
    Codec ID : S_TEXT/UTF8
    Codec ID/Info : UTF-8 Plain Text
    Duration : 1 h 51 min
    Bit rate : 2 b/s
    Count of elements : 45
    Stream size : 1.99 KiB (0%)
    Title : Forced
    Language : Russian
    Default : Yes
    Forced : No

    Text #2
    ID : 5
    Format : UTF-8
    Codec ID : S_TEXT/UTF8
    Codec ID/Info : UTF-8 Plain Text
    Duration : 1 h 53 min
    Bit rate : 65 b/s
    Count of elements : 940
    Stream size : 54.6 KiB (0%)
    Title : full
    Language : Russian
    Default : No
    Forced : No

    Text #3
    ID : 6
    Format : UTF-8
    Codec ID : S_TEXT/UTF8
    Codec ID/Info : UTF-8 Plain Text
    Duration : 1 h 51 min
    Bit rate : 2 b/s
    Count of elements : 45
    Stream size : 2.20 KiB (0%)
    Title : Forced
    Language : Ukrainian
    Default : No
    Forced : No

    Text #4
    ID : 7
    Format : UTF-8
    Codec ID : S_TEXT/UTF8
    Codec ID/Info : UTF-8 Plain Text
    Duration : 1 h 53 min
    Bit rate : 69 b/s
    Count of elements : 1140
    Stream size : 57.4 KiB (0%)
    Title : full
    Language : Ukrainian
    Default : No
    Forced : No

    Text #5
    ID : 8
    Format : UTF-8
    Codec ID : S_TEXT/UTF8
    Codec ID/Info : UTF-8 Plain Text
    Duration : 1 h 53 min
    Bit rate : 37 b/s
    Count of elements : 1038
    Stream size : 30.9 KiB (0%)
    Title : full
    Language : English
    Default : No
    Forced : No

    Text #6
    ID : 9
    Format : UTF-8
    Codec ID : S_TEXT/UTF8
    Codec ID/Info : UTF-8 Plain Text
    Duration : 1 h 53 min
    Bit rate : 43 b/s
    Count of elements : 1244
    Stream size : 35.7 KiB (0%)
    Title : SDH
    Language : English
    Default : No
    Forced : No

    Text #7
    ID : 10
    Format : UTF-8
    Codec ID : S_TEXT/UTF8
    Codec ID/Info : UTF-8 Plain Text
    Duration : 1 h 53 min
    Bit rate : 55 b/s
    Count of elements : 1244
    Stream size : 45.7 KiB (0%)
    Title : SDH-COLORED
    Language : English
    Default : No
    Forced : No

    Menu
    00:00:00.000 : en:Chapter 1
    00:04:04.661 : en:Chapter 2
    00:08:21.543 : en:Chapter 3
    00:13:32.687 : en:Chapter 4
    00:18:28.316 : en:Chapter 5
    00:24:07.237 : en:Chapter 6
    00:29:21.259 : en:Chapter 7
    00:36:15.548 : en:Chapter 8
    00:42:20.663 : en:Chapter 9
    00:48:22.441 : en:Chapter 10
    00:55:12.184 : en:Chapter 11
    01:01:09.666 : en:Chapter 12
    01:08:32.483 : en:Chapter 13
    01:16:23.329 : en:Chapter 14
    01:24:45.330 : en:Chapter 15
    01:29:06.550 : en:Chapter 16
    01:37:52.909 : en:Chapter 17
    01:44:26.343 : en:Chapter 18
    01:48:03.727 : en:Chapter 19
    01:54:01.209 : en:Chapter 20
6.8 из 10
голосов: 4
/10
/10
schultz 21-11-2016, 10:30
Информация
Посетители, находящиеся в группе Гости, не могут оставлять комментарии к данной публикации.