Панель пользователя
Регистрация

Воспользуйтесь социальными сетями для входа на https://freerutor.com

vk odnoklassniki facebook mailru yandex google
Популярное
Счетчик
Голосуй за нас
VIP на сайте
Популярное
Товары интернет магазина
загрузка...

Пит и его дракон (2016) BDRip-AVC | Лицензия | R.G.Resident

Пит и его дракон (2016) BDRip-AVC | Лицензия | R.G.Resident
Участники торрент обмена
Сидов Пиров Скачали
22 3 865
Характеристика
Размер Файлы
1.91 GB
Релиз группа
Поделиться раздачей
Фильмы (AVC)
Наименование: Пит и его дракон
Оригинальное наименование: Pete's Dragon
Категория: фэнтези, приключения, семейный
Произведено: США
Режиссер постановщик: Дэвид Лоури
В главных ролях: Брайс Даллас Ховард, Роберт Редфорд, Оакс Фигли, Уна Лоуренс, Уэс Бентли, Карл Урбан, Исайя Уитлок мл., Маркус Хендерсон, Аарон Джексон, Филип Грив
Краткое описание: В течение многих лет Мистер Мичем забавлял местных детишек сказочными историями о свирепом драконе, обитающим на севере, глубоко в лесах. Для его дочери Грейс все эти истории казались ничем иным как выдумкой, ровно до тех пор, пока она не встретила в лесу маленького мальчика по имени Пит. Пит уже долгое время живет в диком лесу, у него нет ни дома, ни семьи, зато есть замечательный друг - огромный зеленый дракон Эллиот. Грейс решает разгадать историю юного Пита, узнать всю правду о его семье и загадочном драконе, о котором ходит так много слухов и легенд.
  • Видео данные: MPEG-4 AVC, 1759 Кбит/с, 1024x426
    Аудио данные: Русский (AC3, 6 ch, 448 Кбит/с), английский (АС3, 6 ch, 448 Кбит/с)
    Перевод: Дубляж - [BD CEE]
    Продолжительность: 01:42:45
    Субтитры: английские (Full), английские (SDH)
  • Пит и его дракон (2016) BDRip-AVC | Лицензия | R.G.Resident Пит и его дракон (2016) BDRip-AVC | Лицензия | R.G.Resident Пит и его дракон (2016) BDRip-AVC | Лицензия | R.G.Resident
  • General
    Unique ID : 229571390074933444175967129644492276830 (0xACB5D76965D18118AED5F2697F92445E)
    Complete name : D:downloadPetes.Dragon.2016.BDRip-AVC by schultz R.G.Resident.mkv
    Format : Matroska
    Format version : Version 4 / Version 2
    File size : 1.91 GiB
    Duration : 1 h 42 min
    Overall bit rate : 2 657 kb/s
    Encoded date : UTC 2016-11-20 09:42:45
    Writing application : mkvmerge v8.9.0 ('Father Daughter') 64bit
    Writing library : libebml v1.3.3 + libmatroska v1.4.4

    Video
    ID : 1
    Format : AVC
    Format/Info : Advanced Video Codec
    Format profile : High@L4.1
    Format settings, CABAC : Yes
    Format settings, ReFrames : 12 frames
    Codec ID : V_MPEG4/ISO/AVC
    Duration : 1 h 42 min
    Bit rate : 1 759 kb/s
    Width : 1 024 pixels
    Height : 426 pixels
    Display aspect ratio : 2.40:1
    Frame rate mode : Constant
    Frame rate : 23.976 (23976/1000) FPS
    Color space : YUV
    Chroma subsampling : 4:2:0
    Bit depth : 8 bits
    Scan type : Progressive
    Bits/(Pixel*Frame) : 0.168
    Stream size : 1.26 GiB (66%)
    Writing library : x264 core 146 r2538 121396c
    Encoding settings : cabac=1 / ref=12 / deblock=1:-3:-3 / analyse=0x3:0x113 / me=umh / subme=11 / psy=1 / psy_rd=1.00:0.00 / mixed_ref=1 / me_range=48 / chroma_me=1 / trellis=2 / 8x8dct=1 / cqm=0 / deadzone=21,11 / fast_pskip=0 / chroma_qp_offset=-2 / threads=12 / lookahead_threads=3 / sliced_threads=0 / nr=0 / decimate=0 / interlaced=0 / bluray_compat=0 / constrained_intra=0 / bframes=11 / b_pyramid=2 / b_adapt=2 / b_bias=0 / direct=3 / weightb=1 / open_gop=0 / weightp=2 / keyint=240 / keyint_min=23 / scenecut=40 / intra_refresh=0 / rc_lookahead=40 / rc=2pass / mbtree=1 / bitrate=1759 / ratetol=1.0 / qcomp=0.60 / qpmin=0 / qpmax=69 / qpstep=4 / cplxblur=20.0 / qblur=0.5 / vbv_maxrate=50000 / vbv_bufsize=62500 / nal_hrd=none / filler=0 / ip_ratio=1.40 / aq=1:1.00
    Language : English
    Default : Yes
    Forced : No

    Audio #1
    ID : 2
    Format : AC-3
    Format/Info : Audio Coding 3
    Mode extension : CM (complete main)
    Format settings, Endianness : Big
    Codec ID : A_AC3
    Duration : 1 h 42 min
    Bit rate mode : Constant
    Bit rate : 448 kb/s
    Channel(s) : 6 channels
    Channel positions : Front: L C R, Side: L R, LFE
    Sampling rate : 48.0 kHz
    Frame rate : 31.250 FPS (1536 spf)
    Compression mode : Lossy
    Stream size : 329 MiB (17%)
    Language : Russian
    Default : Yes
    Forced : No

    Audio #2
    ID : 3
    Format : AC-3
    Format/Info : Audio Coding 3
    Mode extension : CM (complete main)
    Format settings, Endianness : Big
    Codec ID : A_AC3
    Duration : 1 h 42 min
    Bit rate mode : Constant
    Bit rate : 448 kb/s
    Channel(s) : 6 channels
    Channel positions : Front: L C R, Side: L R, LFE
    Sampling rate : 48.0 kHz
    Frame rate : 31.250 FPS (1536 spf)
    Compression mode : Lossy
    Stream size : 329 MiB (17%)
    Language : English
    Default : No
    Forced : No

    Text #1
    ID : 4
    Format : UTF-8
    Codec ID : S_TEXT/UTF8
    Codec ID/Info : UTF-8 Plain Text
    Duration : 1 h 39 min
    Bit rate : 38 b/s
    Count of elements : 1030
    Stream size : 27.6 KiB (0%)
    Title : Full
    Language : English
    Default : No
    Forced : No

    Text #2
    ID : 5
    Format : UTF-8
    Codec ID : S_TEXT/UTF8
    Codec ID/Info : UTF-8 Plain Text
    Duration : 1 h 41 min
    Bit rate : 42 b/s
    Count of elements : 1231
    Stream size : 31.8 KiB (0%)
    Title : SDH
    Language : English
    Default : No
    Forced : No

    Menu
    00:00:00.000 : en:Family Vacation
    00:06:03.989 : en:The Tale of Dragons
    00:09:46.669 : en:Playtime with Elliot
    00:15:20.128 : en:Forest Ranger Grace
    00:21:28.496 : en:A New Friend
    00:30:23.447 : en:Hospital Escape
    00:36:57.966 : en:Finding Elliot
    00:44:03.057 : en:The Meacham Family
    00:52:28.062 : en:Replaced
    00:56:42.566 : en:The Truth
    01:03:13.832 : en:Capture
    01:10:07.078 : en:Escape Plan
    01:17:17.508 : en:Standoff at the Bridge
    01:26:46.034 : en:Together Again
    01:32:26.750 : en:Epilogue
    01:35:01.362 : en:Credits
8.2 из 10
голосов: 5
/10
/10
schultz 20-11-2016, 13:25
Информация
Посетители, находящиеся в группе Гости, не могут оставлять комментарии к данной публикации.