Панель пользователя
Регистрация

Воспользуйтесь социальными сетями для входа на https://freerutor.com

vk odnoklassniki facebook mailru yandex google
Популярное
Счетчик
Голосуй за нас
VIP на сайте
Популярное
Товары интернет магазина
загрузка...

Джейсон Борн (2016) Blu-Ray Remux 1080p | Лицензия

Джейсон Борн (2016) Blu-Ray Remux 1080p | Лицензия
Участники торрент обмена
Сидов Пиров Скачали
11 2 502
Характеристика
Размер Файлы
30.54 GB
Релиз группа
Поделиться раздачей
Фильмы (720,1080,Blu-Ray)
Наименование: Джейсон Борн
Оригинальное наименование: Jason Bourne
Категория: Боевик, триллер
Произведено: Великобритания, Китай, США, Captivate Entertainment, Double Negative, Pearl Street Films
Режиссер постановщик: Пол Гринграсс
В главных ролях: Мэтт Дэймон, Алисия Викандер, Томми Ли Джонс, Венсан Кассель, Джулия Стайлз, Риз Ахмед, Ато Эссонда, Скотт Шеперд, Билл Кэмп, Винцец Кифер
Краткое описание: Хакерская атака серверов ЦРУ поднимает на ноги весь Лэнгли. Объект взлома-архивы "Тредстоуна", проекта по созданию спецагентов, одним из которых был Джейсон Борн. ЦРУ берет след злоумышленницы Никки Парсонс, которая должна привести их к пропавшему Борну. И если амбициозный зам Хизер Ли еще уповает на возврат Джейсона к службе, то планы директора Дьюи далеко не так оптимистичны. К тому же начинает рваться с поводка Калур, гений, в чьей миллиардной соцсети ЦРУ видит источник для сбора данных. Джейсону Борну вновь придется выйти из тени и померяться силами с давними врагами.
  • Видео данные: MPEG-4 AVC, 26.9 Мбит/с, 1920x1080
    Аудио данные: Русский (DTS, 6 ch, 768 Кбит/с), (AC3, 6 ch, 448 Кбит/с), английский (DTS-HD MA, 8 ch, 7388 Кбит/с)
    Перевод: Дублированный [лицензия]
    Продолжительность: 02:03:11
    Субтитры: Русские, английские, украинские
  • Джейсон Борн (2016) Blu-Ray Remux 1080p | Лицензия Джейсон Борн (2016) Blu-Ray Remux 1080p | Лицензия Джейсон Борн (2016) Blu-Ray Remux 1080p | Лицензия
  • General
    Unique ID : 236872657835613038782742895865295569403 (0xB23403B484561FBFB45B7EAC584481FB)
    Complete name : G:\Video\Jason.Bourne.2016.D.BDREMUX.1080p.ExKinoRay.mkv
    Format : Matroska
    Format version : Version 4 / Version 2
    File size : 30.5 GiB
    Duration : 2 h 3 min
    Overall bit rate mode : Variable
    Overall bit rate : 35.5 Mb/s
    Movie name : Jason.Bourne.2016).build by ***селезень***
    Encoded date : UTC 2016-11-18 18:19:18
    Writing application : mkvmerge v8.3.0 ('Over the Horizon') 64bit
    Writing library : libebml v1.3.1 + libmatroska v1.4.2

    Video
    ID : 1
    Format : AVC
    Format/Info : Advanced Video Codec
    Format profile : High@L4.1
    Format settings, CABAC : Yes
    Format settings, ReFrames : 4 frames
    Codec ID : V_MPEG4/ISO/AVC
    Duration : 2 h 3 min
    Bit rate mode : Variable
    Bit rate : 26.9 Mb/s
    Maximum bit rate : 30.0 Mb/s
    Width : 1 920 pixels
    Height : 1 080 pixels
    Display aspect ratio : 16:9
    Frame rate mode : Constant
    Frame rate : 23.976 (24000/1001) FPS
    Color space : YUV
    Chroma subsampling : 4:2:0
    Bit depth : 8 bits
    Scan type : Progressive
    Bits/(Pixel*Frame) : 0.541
    Stream size : 23.1 GiB (76%)
    Title : Jason.Bourne.2016).build by ***селезень***
    Language : English
    Default : Yes
    Forced : No

    Audio #1
    ID : 2
    Format : DTS
    Format/Info : Digital Theater Systems
    Mode : 16
    Format settings, Endianness : Big
    Codec ID : A_DTS
    Duration : 2 h 3 min
    Bit rate mode : Constant
    Bit rate : 768 kb/s
    Channel(s) : 6 channels
    Channel positions : Front: L C R, Side: L R, LFE
    Sampling rate : 48.0 kHz
    Frame rate : 93.750 FPS (512 spf)
    Bit depth : 24 bits
    Compression mode : Lossy
    Stream size : 677 MiB (2%)
    Title : Dub-DTS [License Blu-ray CEE]
    Language : Russian
    Default : Yes
    Forced : No

    Audio #2
    ID : 3
    Format : AC-3
    Format/Info : Audio Coding 3
    Mode extension : CM (complete main)
    Format settings, Endianness : Big
    Codec ID : A_AC3
    Duration : 2 h 3 min
    Bit rate mode : Constant
    Bit rate : 448 kb/s
    Channel(s) : 6 channels
    Channel positions : Front: L C R, Side: L R, LFE
    Sampling rate : 48.0 kHz
    Frame rate : 31.250 FPS (1536 spf)
    Bit depth : 16 bits
    Compression mode : Lossy
    Stream size : 395 MiB (1%)
    Title : Dub-AC3 [License Blu-ray CEE]
    Language : Russian
    Default : No
    Forced : No

    Audio #3
    ID : 4
    Format : DTS
    Format/Info : Digital Theater Systems
    Format profile : X / MA / Core
    Mode : 16
    Format settings, Endianness : Big
    Codec ID : A_DTS
    Duration : 2 h 3 min
    Bit rate mode : Variable / Variable / Constant
    Bit rate : 7 388 kb/s / 7 388 kb/s / 1 509 kb/s
    Channel(s) : Object Based / 8 channels / 6 channels
    Channel positions : Object Based / Front: L C R, Side: L R, Back: L R, LFE / Front: L C R, Side: L R, LFE
    Sampling rate : / 48.0 kHz / 48.0 kHz
    Frame rate : 93.750 FPS (512 spf)
    Bit depth : / 24 bits / 24 bits
    Compression mode : / Lossless / Lossy
    Stream size : 6.36 GiB (21%)
    Title : Original
    Language : English
    Default : No
    Forced : No

    Text #1
    ID : 5
    Format : UTF-8
    Codec ID : S_TEXT/UTF8
    Codec ID/Info : UTF-8 Plain Text
    Duration : 1 h 51 min
    Bit rate : 2 b/s
    Count of elements : 45
    Stream size : 1.99 KiB (0%)
    Title : Forced
    Language : Russian
    Default : Yes
    Forced : No

    Text #2
    ID : 6
    Format : UTF-8
    Codec ID : S_TEXT/UTF8
    Codec ID/Info : UTF-8 Plain Text
    Duration : 1 h 53 min
    Bit rate : 65 b/s
    Count of elements : 940
    Stream size : 54.6 KiB (0%)
    Title : Full
    Language : Russian
    Default : No
    Forced : No

    Text #3
    ID : 7
    Format : UTF-8
    Codec ID : S_TEXT/UTF8
    Codec ID/Info : UTF-8 Plain Text
    Duration : 1 h 51 min
    Bit rate : 2 b/s
    Count of elements : 45
    Stream size : 2.20 KiB (0%)
    Title : Forced
    Language : Ukrainian
    Default : No
    Forced : No

    Text #4
    ID : 8
    Format : UTF-8
    Codec ID : S_TEXT/UTF8
    Codec ID/Info : UTF-8 Plain Text
    Duration : 1 h 53 min
    Bit rate : 69 b/s
    Count of elements : 1140
    Stream size : 57.4 KiB (0%)
    Title : Full
    Language : Ukrainian
    Default : No
    Forced : No

    Text #5
    ID : 9
    Format : UTF-8
    Codec ID : S_TEXT/UTF8
    Codec ID/Info : UTF-8 Plain Text
    Duration : 1 h 53 min
    Bit rate : 37 b/s
    Count of elements : 1038
    Stream size : 30.9 KiB (0%)
    Title : Full
    Language : English
    Default : No
    Forced : No

    Text #6
    ID : 10
    Format : UTF-8
    Codec ID : S_TEXT/UTF8
    Codec ID/Info : UTF-8 Plain Text
    Duration : 1 h 53 min
    Bit rate : 43 b/s
    Count of elements : 1244
    Stream size : 35.7 KiB (0%)
    Title : SDH
    Language : English
    Default : No
    Forced : No

    Text #7
    ID : 11
    Format : UTF-8
    Codec ID : S_TEXT/UTF8
    Codec ID/Info : UTF-8 Plain Text
    Duration : 1 h 53 min
    Bit rate : 55 b/s
    Count of elements : 1244
    Stream size : 45.7 KiB (0%)
    Title : SDH-Colored
    Language : English
    Default : No
    Forced : No

    Menu
    00:00:00.000 : en:Chapter 1
    00:04:04.661 : en:Chapter 2
    00:08:21.543 : en:Chapter 3
    00:13:32.687 : en:Chapter 4
    00:18:28.316 : en:Chapter 5
    00:24:07.237 : en:Chapter 6
    00:29:21.259 : en:Chapter 7
    00:36:15.548 : en:Chapter 8
    00:42:20.663 : en:Chapter 9
    00:48:22.441 : en:Chapter 10
    00:55:12.184 : en:Chapter 11
    01:01:09.666 : en:Chapter 12
    01:08:32.483 : en:Chapter 13
    01:16:23.329 : en:Chapter 14
    01:24:45.330 : en:Chapter 15
    01:29:06.550 : en:Chapter 16
    01:37:52.909 : en:Chapter 17
    01:44:26.343 : en:Chapter 18
9.5 из 10
голосов: 4
/10
/10
616759 18-11-2016, 21:59

Станислав Егоров | 18-11-2016, 22:08 | Статус: Оффлайн

Вот и дождался ремукс, спасибо.
Информация
Посетители, находящиеся в группе Гости, не могут оставлять комментарии к данной публикации.