Панель пользователя
Регистрация

Воспользуйтесь социальными сетями для входа на https://freerutor.com

vk odnoklassniki facebook mailru yandex google
Популярное
Счетчик
Голосуй за нас
VIP на сайте
Популярное
Товары интернет магазина
загрузка...

Тайная жизнь домашних животных (2016) BDRip-AVC | iTunes | R.G.Resident

Тайная жизнь домашних животных (2016) BDRip-AVC | iTunes | R.G.Resident
Участники торрент обмена
Сидов Пиров Скачали
45 2 1116
Характеристика
Размер Файлы
2.31 GB
Релиз группа
Поделиться раздачей
Мультфильмы
Наименование: Тайная жизнь домашних животных
Оригинальное наименование: The Secret Life of Pets
Категория: мультфильм, комедия, приключения, семейный
Произведено: Япония, США
Режиссер постановщик: Ярроу Чейни , Крис Рено
В главных ролях: Луис С.К., Эрик Стоунстрит, Кевин Харт, Дженни Слейт, Элли Кемпер, Альберт Брукс, Лэйк Белл, Дэна Карви, Хэннибал Бёресс, Бобби Мойнахан
Краткое описание: Что делают домашние животные пока хозяева пропадают на работе? С тоской смотрят в окно? Смиренно дремлют на коврике у двери? Как бы не так. Они ведут свою тайную жизнь.
  • Видео данные: MPEG-4 AVC, 3000 Кбит/с, 1024x552
    Аудио данные: Русский (AC3, 6 ch, 384 Кбит/с), английский (АС3, 6 ch, 448 Кбит/с)
    Перевод: Дубляж - [iTunes]
    Продолжительность: 01:26:27
    Субтитры: русские (forced), украинские (forced), английские (FULL), английские (SDH)
  • Тайная жизнь домашних животных (2016) BDRip-AVC | iTunes | R.G.Resident Тайная жизнь домашних животных (2016) BDRip-AVC | iTunes | R.G.Resident Тайная жизнь домашних животных (2016) BDRip-AVC | iTunes | R.G.Resident
  • General
    Unique ID : 246339532474532603430179820234513376357 (0xB95344A945F6550A93822D66A270E465)
    Complete name : D:\download\The.Secret.Life.of.Pets.2016.BDRip-AVC by schultz R.G.Resident.mkv
    Format : Matroska
    Format version : Version 4 / Version 2
    File size : 2.31 GiB
    Duration : 1 h 26 min
    Overall bit rate : 3 831 kb/s
    Encoded date : UTC 2016-11-16 21:24:31
    Writing application : mkvmerge v8.9.0 ('Father Daughter') 64bit
    Writing library : libebml v1.3.3 + libmatroska v1.4.4

    Video
    ID : 1
    Format : AVC
    Format/Info : Advanced Video Codec
    Format profile : High@L4.1
    Format settings, CABAC : Yes
    Format settings, ReFrames : 12 frames
    Codec ID : V_MPEG4/ISO/AVC
    Duration : 1 h 26 min
    Bit rate : 3 000 kb/s
    Width : 1 024 pixels
    Height : 552 pixels
    Display aspect ratio : 1.85:1
    Frame rate mode : Constant
    Frame rate : 23.976 (23976/1000) FPS
    Color space : YUV
    Chroma subsampling : 4:2:0
    Bit depth : 8 bits
    Scan type : Progressive
    Bits/(Pixel*Frame) : 0.221
    Stream size : 1.81 GiB (78%)
    Writing library : x264 core 146 r2538 121396c
    Encoding settings : cabac=1 / ref=12 / deblock=1:-3:-3 / analyse=0x3:0x113 / me=umh / subme=11 / psy=1 / psy_rd=1.00:0.00 / mixed_ref=1 / me_range=48 / chroma_me=1 / trellis=2 / 8x8dct=1 / cqm=0 / deadzone=21,11 / fast_pskip=0 / chroma_qp_offset=-2 / threads=12 / lookahead_threads=3 / sliced_threads=0 / nr=0 / decimate=0 / interlaced=0 / bluray_compat=0 / constrained_intra=0 / bframes=11 / b_pyramid=2 / b_adapt=2 / b_bias=0 / direct=3 / weightb=1 / open_gop=0 / weightp=2 / keyint=240 / keyint_min=23 / scenecut=40 / intra_refresh=0 / rc_lookahead=40 / rc=2pass / mbtree=1 / bitrate=3000 / ratetol=1.0 / qcomp=0.60 / qpmin=0 / qpmax=69 / qpstep=4 / cplxblur=20.0 / qblur=0.5 / vbv_maxrate=50000 / vbv_bufsize=62500 / nal_hrd=none / filler=0 / ip_ratio=1.40 / aq=1:1.00
    Language : English
    Default : Yes
    Forced : No

    Audio #1
    ID : 2
    Format : AC-3
    Format/Info : Audio Coding 3
    Mode extension : CM (complete main)
    Format settings, Endianness : Big
    Codec ID : A_AC3
    Duration : 1 h 26 min
    Bit rate mode : Constant
    Bit rate : 384 kb/s
    Channel(s) : 6 channels
    Channel positions : Front: L C R, Side: L R, LFE
    Sampling rate : 48.0 kHz
    Frame rate : 31.250 FPS (1536 spf)
    Compression mode : Lossy
    Delay relative to video : 22 ms
    Stream size : 237 MiB (10%)
    Language : Russian
    Default : Yes
    Forced : No

    Audio #2
    ID : 3
    Format : AC-3
    Format/Info : Audio Coding 3
    Mode extension : CM (complete main)
    Format settings, Endianness : Big
    Codec ID : A_AC3
    Duration : 1 h 26 min
    Bit rate mode : Constant
    Bit rate : 448 kb/s
    Channel(s) : 6 channels
    Channel positions : Front: L C R, Side: L R, LFE
    Sampling rate : 48.0 kHz
    Frame rate : 31.250 FPS (1536 spf)
    Compression mode : Lossy
    Stream size : 277 MiB (12%)
    Language : English
    Default : No
    Forced : No

    Text #1
    ID : 4
    Format : UTF-8
    Codec ID : S_TEXT/UTF8
    Codec ID/Info : UTF-8 Plain Text
    Duration : 1 h 18 min
    Bit rate : 1 b/s
    Count of elements : 18
    Stream size : 709 Bytes (0%)
    Title : forced
    Language : Russian
    Default : Yes
    Forced : No

    Text #2
    ID : 5
    Format : UTF-8
    Codec ID : S_TEXT/UTF8
    Codec ID/Info : UTF-8 Plain Text
    Duration : 1 h 18 min
    Bit rate : 1 b/s
    Count of elements : 18
    Stream size : 669 Bytes (0%)
    Title : forced
    Language : Ukrainian
    Default : No
    Forced : No

    Text #3
    ID : 6
    Format : UTF-8
    Codec ID : S_TEXT/UTF8
    Codec ID/Info : UTF-8 Plain Text
    Duration : 1 h 26 min
    Bit rate : 50 b/s
    Count of elements : 1319
    Stream size : 31.7 KiB (0%)
    Title : FULL
    Language : English
    Default : No
    Forced : No

    Text #4
    ID : 7
    Format : UTF-8
    Codec ID : S_TEXT/UTF8
    Codec ID/Info : UTF-8 Plain Text
    Duration : 1 h 26 min
    Bit rate : 61 b/s
    Count of elements : 1690
    Stream size : 38.8 KiB (0%)
    Title : SDH
    Language : English
    Default : No
    Forced : No

    Menu
    00:00:00.000 : en:00:00:00.000
    00:05:05.847 : en:00:05:05.847
    00:09:24.063 : en:00:09:24.063
    00:13:18.840 : en:00:13:18.840
    00:18:03.666 : en:00:18:03.666
    00:22:14.458 : en:00:22:14.458
    00:28:51.855 : en:00:28:51.855
    00:32:54.848 : en:00:32:54.848
    00:36:55.839 : en:00:36:55.839
    00:42:27.295 : en:00:42:27.295
    00:44:46.767 : en:00:44:46.767
    00:50:21.227 : en:00:50:21.227
    00:54:45.407 : en:00:54:45.407
    00:59:33.987 : en:00:59:33.987
    01:02:36.544 : en:01:02:36.544
    01:07:12.362 : en:01:07:12.362
    01:13:06.841 : en:01:13:06.841
    01:16:04.602 : en:01:16:04.602
    01:18:48.057 : en:01:18:48.057
    01:19:58.836 : en:01:19:58.836
10.0 из 10
голосов: 2
/10
/10
schultz 17-11-2016, 01:11

jjkl | 17-11-2016, 02:19 | Статус: Оффлайн

спасибо
Информация
Посетители, находящиеся в группе Гости, не могут оставлять комментарии к данной публикации.