Панель пользователя
Регистрация

Воспользуйтесь социальными сетями для входа на https://freerutor.com

vk odnoklassniki facebook mailru yandex google
Популярное
Счетчик
Голосуй за нас
VIP на сайте
Популярное
Товары интернет магазина
загрузка...

Механик: Воскрешение (2016) BDRip-AVC | iTunes | R.G.Resident

Механик: Воскрешение (2016) BDRip-AVC | iTunes | R.G.Resident
Участники торрент обмена
Сидов Пиров Скачали
96 1 7367
Характеристика
Размер Файлы
2.23 GB
Релиз группа
Поделиться раздачей
Фильмы (AVC)
Наименование: Механик: Воскрешение
Оригинальное наименование: Mechanic: Resurrection
Категория: боевик, триллер, криминал
Произведено: Франция, США
Режиссер постановщик: Деннис Ганзель
В главных ролях: Джейсон Стэйтем, Джессика Альба, Томми Ли Джонс, Мишель Йео, Наталия Гуслистая, Ейяинг Рхатха Пхонгам, Сэм Хэзелдайн, Джон Ченатьемпо, Райчо Василев, Аарон Брамфилд
Краткое описание: Артура Бишопа, давно оставившего свое криминальное ремесло, вынуждают снова вступить в игру. Чтобы похитители вернули его возлюбленную, он должен сделать то, что у него получается лучше всего: от него требуется совершить три убийства, идеально обставленных как несчастные случаи.
  • Видео данные: MPEG-4 AVC, 2396 Кбит/с, 1024x428
    Аудио данные: Русский (AC3, 6 ch, 384 Кбит/с), английский (АС3, 6 ch, 448 Кбит/с)
    Перевод: Дубляж - [iTunes]
    Продолжительность: 01:38:38
    Субтитры: английские (Full), английские (SDH)
  • Механик: Воскрешение (2016) BDRip-AVC | iTunes | R.G.Resident Механик: Воскрешение (2016) BDRip-AVC | iTunes | R.G.Resident Механик: Воскрешение (2016) BDRip-AVC | iTunes | R.G.Resident
  • General
    Unique ID : 247103770155363870291817961548049322969 (0xB9E6747CEEBC71DC8E1E2639D4D493D9)
    Complete name : D:downloadMechanic.Resurrection.2016.BDRip-AVC by schultz R.G.Resident.mkv
    Format : Matroska
    Format version : Version 4 / Version 2
    File size : 2.23 GiB
    Duration : 1 h 38 min
    Overall bit rate : 3 230 kb/s
    Encoded date : UTC 2016-11-13 01:00:34
    Writing application : mkvmerge v8.9.0 ('Father Daughter') 64bit
    Writing library : libebml v1.3.3 + libmatroska v1.4.4

    Video
    ID : 1
    Format : AVC
    Format/Info : Advanced Video Codec
    Format profile : High@L4.1
    Format settings, CABAC : Yes
    Format settings, ReFrames : 12 frames
    Codec ID : V_MPEG4/ISO/AVC
    Duration : 1 h 38 min
    Bit rate : 2 396 kb/s
    Width : 1 024 pixels
    Height : 428 pixels
    Display aspect ratio : 2.40:1
    Frame rate mode : Constant
    Frame rate : 23.976 (23976/1000) FPS
    Color space : YUV
    Chroma subsampling : 4:2:0
    Bit depth : 8 bits
    Scan type : Progressive
    Bits/(Pixel*Frame) : 0.228
    Stream size : 1.65 GiB (74%)
    Writing library : x264 core 146 r2538 121396c
    Encoding settings : cabac=1 / ref=12 / deblock=1:-3:-3 / analyse=0x3:0x113 / me=umh / subme=11 / psy=1 / psy_rd=1.00:0.00 / mixed_ref=1 / me_range=48 / chroma_me=1 / trellis=2 / 8x8dct=1 / cqm=0 / deadzone=21,11 / fast_pskip=0 / chroma_qp_offset=-2 / threads=12 / lookahead_threads=3 / sliced_threads=0 / nr=0 / decimate=0 / interlaced=0 / bluray_compat=0 / constrained_intra=0 / bframes=11 / b_pyramid=2 / b_adapt=2 / b_bias=0 / direct=3 / weightb=1 / open_gop=0 / weightp=2 / keyint=240 / keyint_min=23 / scenecut=40 / intra_refresh=0 / rc_lookahead=40 / rc=2pass / mbtree=1 / bitrate=2396 / ratetol=1.0 / qcomp=0.60 / qpmin=0 / qpmax=69 / qpstep=4 / cplxblur=20.0 / qblur=0.5 / vbv_maxrate=50000 / vbv_bufsize=62500 / nal_hrd=none / filler=0 / ip_ratio=1.40 / aq=1:1.00
    Language : English
    Default : Yes
    Forced : No

    Audio #1
    ID : 2
    Format : AC-3
    Format/Info : Audio Coding 3
    Mode extension : CM (complete main)
    Format settings, Endianness : Big
    Codec ID : A_AC3
    Duration : 1 h 38 min
    Bit rate mode : Constant
    Bit rate : 384 kb/s
    Channel(s) : 6 channels
    Channel positions : Front: L C R, Side: L R, LFE
    Sampling rate : 48.0 kHz
    Frame rate : 31.250 FPS (1536 spf)
    Compression mode : Lossy
    Stream size : 271 MiB (12%)
    Language : Russian
    Default : Yes
    Forced : No

    Audio #2
    ID : 3
    Format : AC-3
    Format/Info : Audio Coding 3
    Mode extension : CM (complete main)
    Format settings, Endianness : Big
    Codec ID : A_AC3
    Duration : 1 h 38 min
    Bit rate mode : Constant
    Bit rate : 448 kb/s
    Channel(s) : 6 channels
    Channel positions : Front: L C R, Side: L R, LFE
    Sampling rate : 48.0 kHz
    Frame rate : 31.250 FPS (1536 spf)
    Compression mode : Lossy
    Stream size : 316 MiB (14%)
    Language : English
    Default : No
    Forced : No

    Text #1
    ID : 4
    Format : UTF-8
    Codec ID : S_TEXT/UTF8
    Codec ID/Info : UTF-8 Plain Text
    Duration : 1 h 30 min
    Bit rate : 29 b/s
    Count of elements : 631
    Stream size : 19.8 KiB (0%)
    Title : Full
    Language : English
    Default : No
    Forced : No

    Text #2
    ID : 5
    Format : UTF-8
    Codec ID : S_TEXT/UTF8
    Codec ID/Info : UTF-8 Plain Text
    Duration : 1 h 33 min
    Bit rate : 34 b/s
    Count of elements : 847
    Stream size : 23.8 KiB (0%)
    Title : SDH
    Language : English
    Default : No
    Forced : No

    Menu
    00:00:00.000 : en:00:00:00.000
    00:06:34.936 : en:00:06:34.936
    00:11:51.336 : en:00:11:51.336
    00:18:31.277 : en:00:18:31.277
    00:26:04.897 : en:00:26:04.897
    00:31:57.540 : en:00:31:57.540
    00:38:31.267 : en:00:38:31.267
    00:43:35.696 : en:00:43:35.696
    00:49:23.210 : en:00:49:23.210
    00:54:20.382 : en:00:54:20.382
    01:00:09.856 : en:01:00:09.856
    01:05:50.446 : en:01:05:50.446
    01:10:25.429 : en:01:10:25.429
    01:14:52.363 : en:01:14:52.363
    01:21:04.860 : en:01:21:04.860
    01:31:38.785 : en:01:31:38.785
10.0 из 10
голосов: 5
/10
/10
schultz 13-11-2016, 04:47
Информация
Посетители, находящиеся в группе Гости, не могут оставлять комментарии к данной публикации.