Панель пользователя
Регистрация

Воспользуйтесь социальными сетями для входа на https://freerutor.com

vk odnoklassniki facebook mailru yandex google
Популярное
Счетчик
Голосуй за нас
VIP на сайте
Популярное
Товары интернет магазина
загрузка...

Парни со стволами (2016) BDRip-AVC | iTunes | R.G.Resident

Парни со стволами (2016) BDRip-AVC | iTunes | R.G.Resident
Участники торрент обмена
Сидов Пиров Скачали
23 1 640
Характеристика
Размер Файлы
2.50 GB
Релиз группа
Поделиться раздачей
Фильмы (AVC)
Наименование: Парни со стволами
Оригинальное наименование: War Dogs
Категория: драма, комедия, криминал, военный
Произведено: США
Режиссер постановщик: Тодд Филлипс
В главных ролях: Майлз Теллер, Джона Хилл, Стив Лэнц, Грегг Уэйнер, Эдди Джемисон, Джулиан Сержи, Дэниэл Берсон, Эдсон Жан, Брэдли Купер
Краткое описание: Реальная история о приятелях-планокурах из Майами, умудрившихся выбить в Пентагоне контракт на 300 миллионов долларов на поставку оружия.
  • Видео данные: MPEG-4 AVC, 2960 Кбит/с, 1024x426
    Аудио данные: Русский (AC3, 6 ch, 384 Кбит/с), английский (АС3, 6 ch, 448 Кбит/с)
    Перевод: Дубляж - [iTunes]
    Продолжительность: 01:54:12
    Субтитры: русские (Forced), русские (Full), английские (Full), английские (SDH)
  • Парни со стволами (2016) BDRip-AVC | iTunes | R.G.Resident Парни со стволами (2016) BDRip-AVC | iTunes | R.G.Resident Парни со стволами (2016) BDRip-AVC | iTunes | R.G.Resident
  • General
    Unique ID : 173790399522927643271650101081252505441 (0x82BED03E2E9AB251837C4B1A5DE32761)
    Complete name : D:downloadWar Dogs. 2016.BDRip-AVC by schultz R.G.Resident.mkv
    Format : Matroska
    Format version : Version 4 / Version 2
    File size : 2.50 GiB
    Duration : 1 h 54 min
    Overall bit rate : 3 130 kb/s
    Encoded date : UTC 2016-11-12 14:52:06
    Writing application : mkvmerge v8.9.0 ('Father Daughter') 64bit
    Writing library : libebml v1.3.3 + libmatroska v1.4.4

    Video
    ID : 1
    Format : AVC
    Format/Info : Advanced Video Codec
    Format profile : High@L4.1
    Format settings, CABAC : Yes
    Format settings, ReFrames : 12 frames
    Codec ID : V_MPEG4/ISO/AVC
    Duration : 1 h 54 min
    Bit rate : 2 296 kb/s
    Width : 1 024 pixels
    Height : 426 pixels
    Display aspect ratio : 2.40:1
    Frame rate mode : Constant
    Frame rate : 23.976 (23976/1000) FPS
    Color space : YUV
    Chroma subsampling : 4:2:0
    Bit depth : 8 bits
    Scan type : Progressive
    Bits/(Pixel*Frame) : 0.220
    Stream size : 1.83 GiB (73%)
    Writing library : x264 core 146 r2538 121396c
    Encoding settings : cabac=1 / ref=12 / deblock=1:-3:-3 / analyse=0x3:0x113 / me=umh / subme=11 / psy=1 / psy_rd=1.00:0.00 / mixed_ref=1 / me_range=48 / chroma_me=1 / trellis=2 / 8x8dct=1 / cqm=0 / deadzone=21,11 / fast_pskip=0 / chroma_qp_offset=-2 / threads=12 / lookahead_threads=3 / sliced_threads=0 / nr=0 / decimate=0 / interlaced=0 / bluray_compat=0 / constrained_intra=0 / bframes=11 / b_pyramid=2 / b_adapt=2 / b_bias=0 / direct=3 / weightb=1 / open_gop=0 / weightp=2 / keyint=240 / keyint_min=23 / scenecut=40 / intra_refresh=0 / rc_lookahead=40 / rc=2pass / mbtree=1 / bitrate=2296 / ratetol=1.0 / qcomp=0.60 / qpmin=0 / qpmax=69 / qpstep=4 / cplxblur=20.0 / qblur=0.5 / vbv_maxrate=50000 / vbv_bufsize=62500 / nal_hrd=none / filler=0 / ip_ratio=1.40 / aq=1:1.00
    Language : English
    Default : Yes
    Forced : No

    Audio #1
    ID : 2
    Format : AC-3
    Format/Info : Audio Coding 3
    Mode extension : CM (complete main)
    Format settings, Endianness : Big
    Codec ID : A_AC3
    Duration : 1 h 54 min
    Bit rate mode : Constant
    Bit rate : 384 kb/s
    Channel(s) : 6 channels
    Channel positions : Front: L C R, Side: L R, LFE
    Sampling rate : 48.0 kHz
    Frame rate : 31.250 FPS (1536 spf)
    Compression mode : Lossy
    Stream size : 314 MiB (12%)
    Language : Russian
    Default : Yes
    Forced : No

    Audio #2
    ID : 3
    Format : AC-3
    Format/Info : Audio Coding 3
    Mode extension : CM (complete main)
    Format settings, Endianness : Big
    Codec ID : A_AC3
    Duration : 1 h 54 min
    Bit rate mode : Constant
    Bit rate : 448 kb/s
    Channel(s) : 6 channels
    Channel positions : Front: L C R, Side: L R, LFE
    Sampling rate : 48.0 kHz
    Frame rate : 31.250 FPS (1536 spf)
    Compression mode : Lossy
    Stream size : 366 MiB (14%)
    Language : English
    Default : No
    Forced : No

    Text #1
    ID : 4
    Format : UTF-8
    Codec ID : S_TEXT/UTF8
    Codec ID/Info : UTF-8 Plain Text
    Duration : 1 h 48 min
    Bit rate : 2 b/s
    Count of elements : 42
    Stream size : 1.77 KiB (0%)
    Title : Forced
    Language : Russian
    Default : Yes
    Forced : No

    Text #2
    ID : 5
    Format : UTF-8
    Codec ID : S_TEXT/UTF8
    Codec ID/Info : UTF-8 Plain Text
    Duration : 1 h 53 min
    Bit rate : 110 b/s
    Count of elements : 1297
    Stream size : 91.5 KiB (0%)
    Title : Full
    Language : Russian
    Default : No
    Forced : No

    Text #3
    ID : 6
    Format : UTF-8
    Codec ID : S_TEXT/UTF8
    Codec ID/Info : UTF-8 Plain Text
    Duration : 1 h 47 min
    Bit rate : 71 b/s
    Count of elements : 1773
    Stream size : 56.2 KiB (0%)
    Title : Full
    Language : English
    Default : No
    Forced : No

    Text #4
    ID : 7
    Format : UTF-8
    Codec ID : S_TEXT/UTF8
    Codec ID/Info : UTF-8 Plain Text
    Duration : 1 h 47 min
    Bit rate : 76 b/s
    Count of elements : 1921
    Stream size : 60.3 KiB (0%)
    Title : SDH
    Language : English
    Default : No
    Forced : No

    Menu
    00:00:00.000 : en:Chapter 01
    00:10:13.487 : en:Chapter 02
    00:19:00.848 : en:Chapter 03
    00:30:21.110 : en:Chapter 04
    00:40:02.149 : en:Chapter 05
    00:50:56.178 : en:Chapter 06
    00:59:34.237 : en:Chapter 07
    01:10:59.213 : en:Chapter 08
    01:20:08.720 : en:Chapter 09
    01:32:06.020 : en:Chapter 10
    01:39:36.011 : en:Chapter 11
    01:48:19.117 : en:Chapter 12
9.0 из 10
голосов: 7
/10
/10
schultz 12-11-2016, 19:22
Информация
Посетители, находящиеся в группе Гости, не могут оставлять комментарии к данной публикации.