Панель пользователя
Регистрация

Воспользуйтесь социальными сетями для входа на https://freerutor.com

vk odnoklassniki facebook mailru yandex google
Популярное
Счетчик
Голосуй за нас
VIP на сайте
Популярное
Товары интернет магазина
загрузка...

Парни со стволами (2016) Blu-Ray Remux 1080p | iTunes

Парни со стволами (2016) Blu-Ray Remux 1080p | iTunes
Участники торрент обмена
Сидов Пиров Скачали
35 4 1275
Характеристика
Размер Файлы
26.55 GB
Релиз группа
Поделиться раздачей
Фильмы (720,1080,Blu-Ray)
Наименование: Парни со стволами
Оригинальное наименование: War Dogs
Категория: Драма, комедия, военный
Произведено: США, Green Hat Films, Mark Gordon Company
Режиссер постановщик: Тодд Филлипс
В главных ролях: Майлз Теллер, Джона Хилл, Стив Лэнц, Грегг Уэйнер, Эдди Джемисон, Джулиан Сержи, Дэниэл Берсон, Эдсон Жан, Брэдли Купер
Краткое описание: Реальная история о приятелях-планокурах из Майами, умудрившихся выбить в Пентагоне контракт на 300 миллионов долларов на поставку оружия.
  • Видео данные: MPEG-4 AVC, 29.4 Mбит/с, 1920x1080
    Аудио данные: Русский (AC3, 6 ch, 384 Кбит/с), английский (DTS-HD MA, 6 ch, 3525 Кбит/с)
    Перевод: Дублированный [iTunes]
    Продолжительность: 01:54:13
    Субтитры: Русские, английские
  • Парни со стволами (2016) Blu-Ray Remux 1080p | iTunes Парни со стволами (2016) Blu-Ray Remux 1080p | iTunes Парни со стволами (2016) Blu-Ray Remux 1080p | iTunes
  • General
    Unique ID : 225912239665195700343790760350063891382 (0xA9F51D5E1FEAF9A2971DC1B5578193B6)
    Complete name : G:\Video\War.Dogs.2016.BDREMUX.1080p.ExKinoRay.mkv
    Format : Matroska
    Format version : Version 4 / Version 2
    File size : 26.6 GiB
    Duration : 1 h 54 min
    Overall bit rate mode : Variable
    Overall bit rate : 33.3 Mb/s
    Movie name : War.Dogs.2016.build.by.***селезень***
    Encoded date : UTC 2016-11-12 04:50:58
    Writing application : mkvmerge v8.3.0 ('Over the Horizon') 64bit
    Writing library : libebml v1.3.1 + libmatroska v1.4.2

    Video
    ID : 1
    Format : AVC
    Format/Info : Advanced Video Codec
    Format profile : High@L4.1
    Format settings, CABAC : Yes
    Format settings, ReFrames : 2 frames
    Codec ID : V_MPEG4/ISO/AVC
    Duration : 1 h 54 min
    Bit rate mode : Variable
    Bit rate : 29.4 Mb/s
    Width : 1 920 pixels
    Height : 1 080 pixels
    Display aspect ratio : 16:9
    Frame rate mode : Constant
    Frame rate : 23.976 (24000/1001) FPS
    Color space : YUV
    Chroma subsampling : 4:2:0
    Bit depth : 8 bits
    Scan type : Progressive
    Bits/(Pixel*Frame) : 0.591
    Stream size : 23.4 GiB (88%)
    Title : War.Dogs.2016.build.by.***селезень***
    Language : English
    Default : No
    Forced : No

    Audio #1
    ID : 2
    Format : AC-3
    Format/Info : Audio Coding 3
    Mode extension : CM (complete main)
    Format settings, Endianness : Big
    Codec ID : A_AC3
    Duration : 1 h 54 min
    Bit rate mode : Constant
    Bit rate : 384 kb/s
    Channel(s) : 6 channels
    Channel positions : Front: L C R, Side: L R, LFE
    Sampling rate : 48.0 kHz
    Frame rate : 31.250 FPS (1536 spf)
    Compression mode : Lossy
    Stream size : 314 MiB (1%)
    Title : iTunes
    Language : Russian
    Default : Yes
    Forced : No

    Audio #2
    ID : 3
    Format : DTS
    Format/Info : Digital Theater Systems
    Format profile : MA / Core
    Mode : 16
    Format settings, Endianness : Big
    Codec ID : A_DTS
    Duration : 1 h 54 min
    Bit rate mode : Variable / Constant
    Bit rate : 3 525 kb/s / 1 509 kb/s
    Channel(s) : 6 channels
    Channel positions : Front: L C R, Side: L R, LFE
    Sampling rate : 48.0 kHz
    Frame rate : 93.750 FPS (512 spf)
    Bit depth : 24 bits
    Compression mode : Lossless / Lossy
    Stream size : 2.81 GiB (11%)
    Title : Original
    Language : English
    Default : No
    Forced : No

    Text #1
    ID : 4
    Format : UTF-8
    Codec ID : S_TEXT/UTF8
    Codec ID/Info : UTF-8 Plain Text
    Duration : 1 h 48 min
    Bit rate : 2 b/s
    Count of elements : 42
    Stream size : 1.77 KiB (0%)
    Title : Forced
    Language : Russian
    Default : Yes
    Forced : No

    Text #2
    ID : 5
    Format : UTF-8
    Codec ID : S_TEXT/UTF8
    Codec ID/Info : UTF-8 Plain Text
    Duration : 1 h 53 min
    Bit rate : 110 b/s
    Count of elements : 1297
    Stream size : 91.5 KiB (0%)
    Title : Full
    Language : Russian
    Default : No
    Forced : No

    Text #3
    ID : 6
    Format : UTF-8
    Codec ID : S_TEXT/UTF8
    Codec ID/Info : UTF-8 Plain Text
    Duration : 1 h 47 min
    Bit rate : 71 b/s
    Count of elements : 1773
    Stream size : 56.2 KiB (0%)
    Title : Full
    Language : English
    Default : No
    Forced : No

    Text #4
    ID : 7
    Format : UTF-8
    Codec ID : S_TEXT/UTF8
    Codec ID/Info : UTF-8 Plain Text
    Duration : 1 h 47 min
    Bit rate : 76 b/s
    Count of elements : 1921
    Stream size : 60.3 KiB (0%)
    Title : SDH
    Language : English
    Default : No
    Forced : No

    Menu
    00:00:00.000 : en:Chapter 01
    00:10:13.487 : en:Chapter 02
    00:19:00.848 : en:Chapter 03
    00:30:21.110 : en:Chapter 04
    00:40:02.149 : en:Chapter 05
    00:50:56.178 : en:Chapter 06
    00:59:34.237 : en:Chapter 07
    01:10:59.213 : en:Chapter 08
    01:20:08.720 : en:Chapter 09
    01:32:06.020 : en:Chapter 10
    01:39:36.011 : en:Chapter 11
    01:48:19.117 : en:Chapter 12
10.0 из 10
голосов: 1
/10
/10
616759 12-11-2016, 08:53
Информация
Посетители, находящиеся в группе Гости, не могут оставлять комментарии к данной публикации.