Панель пользователя
Регистрация

Воспользуйтесь социальными сетями для входа на https://freerutor.com

vk odnoklassniki facebook mailru yandex google
Популярное
Счетчик
Голосуй за нас
VIP на сайте
Популярное
Товары интернет магазина
загрузка...

Охотники за привидениями (2016) BDRip 720р | Extended Cut | Лицензия | R.G.Resident

Охотники за привидениями (2016) BDRip 720р | Extended Cut | Лицензия | R.G.Resident
Участники торрент обмена
Сидов Пиров Скачали
0 0 48
Характеристика
Размер Файлы
9.10 GB
Релиз группа
Поделиться раздачей
Фильмы (720,1080,Blu-Ray)
Наименование: Охотники за привидениями
Оригинальное наименование: Ghostbusters
Категория: фантастика, фэнтези, боевик, комедия
Произведено: США, Австралия
Режиссер постановщик: Пол Фиг
В главных ролях: Мелисса МакКарти, Кристен Уиг, Кейт МакКиннон, Лесли Джонс, Крис Хемсворт, Сесили Стронг, Энди Гарсиа, Нил Кэйси, Чарльз Дэнс, Майкл Кеннет Уильямс
Краткое описание: Тридцать лет назад охотники за привидениями спасли Нью-Йорк от нашествия призраков, но теперь городу вновь угрожает опасность. Былые герои не могут стать на его защиту, но находятся и другие отважные люди, всю свою жизнь посвятившие изучению паранормальных явлений. Эбби Йейтс объединяется с Эрин Гилберт, пожалуй лучшим специалистом в квантовой физике, и вместе они собирают команду новых охотников за привидениями, в которую принимают отличного инженера Джиллиан Хольцман, сотрудницу метрополитена Пэтти Толан, знающую город как свои пять пальцев, и секретаря - настоящего красавчика Кэвина. Вместе они начинают борьбу с нечистой силой, терроризирующей мегаполис...
  • Видео данные: MPEG-4 AVC, 7459 Кбит/с, 1280x536
    Аудио данные: Русский, украинский (AC3, 6 ch, 384 Кбит/с), английский (DTS, 6 ch, 1509 Кбит/с)
    Перевод: Дубляж - [Лицензия] | BD CEE
    Продолжительность: 02:13:44
    Субтитры: русские (Full), украинские (Full), английские (Full), английские (SDH)
  • Охотники за привидениями (2016) BDRip 720р | Extended Cut | Лицензия | R.G.Resident Охотники за привидениями (2016) BDRip 720р | Extended Cut | Лицензия | R.G.Resident Охотники за привидениями (2016) BDRip 720р | Extended Cut | Лицензия | R.G.Resident
  • x264 [info]: frame I:2439 Avg QP:12.01 size:201582
    x264 [info]: frame P:48822 Avg QP:15.58 size: 75761
    x264 [info]: frame B:141146 Avg QP:18.18 size: 23325

    General
    Unique ID : 173807799394408770769297549700373984144 (0x82C22A1F6F98CCAFBFD19B9B1A74B390)
    Complete name : D:downloadGhostbusters.2016.BDRip 720р Extended Cut by schultz R.G.Resident.mkv
    Format : Matroska
    Format version : Version 4 / Version 2
    File size : 9.10 GiB
    Duration : 2 h 13 min
    Overall bit rate : 9 740 kb/s
    Encoded date : UTC 2016-10-31 15:28:05
    Writing application : mkvmerge v8.9.0 ('Father Daughter') 64bit
    Writing library : libebml v1.3.3 + libmatroska v1.4.4

    Video
    ID : 1
    Format : AVC
    Format/Info : Advanced Video Codec
    Format profile : High@L4.1
    Format settings, CABAC : Yes
    Format settings, ReFrames : 12 frames
    Codec ID : V_MPEG4/ISO/AVC
    Duration : 2 h 13 min
    Bit rate : 7 459 kb/s
    Width : 1 280 pixels
    Height : 536 pixels
    Display aspect ratio : 2.40:1
    Frame rate mode : Constant
    Frame rate : 23.976 (23976/1000) FPS
    Color space : YUV
    Chroma subsampling : 4:2:0
    Bit depth : 8 bits
    Scan type : Progressive
    Bits/(Pixel*Frame) : 0.453
    Stream size : 6.97 GiB (77%)
    Writing library : x264 core 146 r2538 121396c
    Encoding settings : cabac=1 / ref=12 / deblock=1:-3:-3 / analyse=0x3:0x113 / me=umh / subme=11 / psy=1 / psy_rd=1.00:0.00 / mixed_ref=1 / me_range=48 / chroma_me=1 / trellis=2 / 8x8dct=1 / cqm=0 / deadzone=21,11 / fast_pskip=0 / chroma_qp_offset=-2 / threads=12 / lookahead_threads=3 / sliced_threads=0 / nr=0 / decimate=0 / interlaced=0 / bluray_compat=0 / constrained_intra=0 / bframes=11 / b_pyramid=2 / b_adapt=2 / b_bias=0 / direct=3 / weightb=1 / open_gop=0 / weightp=2 / keyint=240 / keyint_min=23 / scenecut=40 / intra_refresh=0 / rc_lookahead=40 / rc=2pass / mbtree=1 / bitrate=7459 / ratetol=1.0 / qcomp=0.60 / qpmin=0 / qpmax=69 / qpstep=4 / cplxblur=20.0 / qblur=0.5 / vbv_maxrate=50000 / vbv_bufsize=62500 / nal_hrd=none / filler=0 / ip_ratio=1.40 / aq=1:1.00
    Language : English
    Default : Yes
    Forced : No

    Audio #1
    ID : 2
    Format : AC-3
    Format/Info : Audio Coding 3
    Mode extension : CM (complete main)
    Format settings, Endianness : Big
    Codec ID : A_AC3
    Duration : 2 h 13 min
    Bit rate mode : Constant
    Bit rate : 384 kb/s
    Channel(s) : 6 channels
    Channel positions : Front: L C R, Side: L R, LFE
    Sampling rate : 48.0 kHz
    Frame rate : 31.250 FPS (1536 spf)
    Compression mode : Lossy
    Stream size : 367 MiB (4%)
    Language : Russian
    Default : Yes
    Forced : No

    Audio #2
    ID : 3
    Format : AC-3
    Format/Info : Audio Coding 3
    Mode extension : CM (complete main)
    Format settings, Endianness : Big
    Codec ID : A_AC3
    Duration : 2 h 13 min
    Bit rate mode : Constant
    Bit rate : 384 kb/s
    Channel(s) : 6 channels
    Channel positions : Front: L C R, Side: L R, LFE
    Sampling rate : 48.0 kHz
    Frame rate : 31.250 FPS (1536 spf)
    Compression mode : Lossy
    Stream size : 367 MiB (4%)
    Language : Ukrainian
    Default : No
    Forced : No

    Audio #3
    ID : 4
    Format : DTS
    Format/Info : Digital Theater Systems
    Mode : 16
    Format settings, Endianness : Big
    Codec ID : A_DTS
    Duration : 2 h 13 min
    Bit rate mode : Constant
    Bit rate : 1 509 kb/s
    Channel(s) : 6 channels
    Channel positions : Front: L C R, Side: L R, LFE
    Sampling rate : 48.0 kHz
    Frame rate : 93.750 FPS (512 spf)
    Bit depth : 24 bits
    Compression mode : Lossy
    Delay relative to video : 11 ms
    Stream size : 1.41 GiB (15%)
    Language : English
    Default : No
    Forced : No

    Text #1
    ID : 5
    Format : UTF-8
    Codec ID : S_TEXT/UTF8
    Codec ID/Info : UTF-8 Plain Text
    Duration : 2 h 12 min
    Bit rate : 122 b/s
    Count of elements : 2390
    Stream size : 119 KiB (0%)
    Title : full
    Language : Russian
    Default : No
    Forced : No

    Text #2
    ID : 6
    Format : UTF-8
    Codec ID : S_TEXT/UTF8
    Codec ID/Info : UTF-8 Plain Text
    Duration : 2 h 12 min
    Bit rate : 126 b/s
    Count of elements : 2388
    Stream size : 123 KiB (0%)
    Title : full
    Language : Ukrainian
    Default : No
    Forced : No

    Text #3
    ID : 7
    Format : UTF-8
    Codec ID : S_TEXT/UTF8
    Codec ID/Info : UTF-8 Plain Text
    Duration : 2 h 12 min
    Bit rate : 90 b/s
    Count of elements : 2609
    Stream size : 87.7 KiB (0%)
    Title : full
    Language : English
    Default : No
    Forced : No

    Text #4
    ID : 8
    Format : UTF-8
    Codec ID : S_TEXT/UTF8
    Codec ID/Info : UTF-8 Plain Text
    Duration : 2 h 12 min
    Bit rate : 98 b/s
    Count of elements : 2897
    Stream size : 95.9 KiB (0%)
    Title : SDH
    Language : English
    Default : No
    Forced : No

    Menu
    00:00:00.000 : en:00:00:00.000
    00:10:26.626 : en:00:10:26.626
    00:17:52.405 : en:00:17:52.405
    00:23:00.879 : en:00:23:00.879
    00:28:51.521 : en:00:28:51.521
    00:37:36.629 : en:00:37:36.629
    00:42:48.566 : en:00:42:48.566
    00:49:06.068 : en:00:49:06.068
    01:00:15.153 : en:01:00:15.153
    01:05:10.073 : en:01:05:10.073
    01:10:32.978 : en:01:10:32.978
    01:16:51.940 : en:01:16:51.940
    01:29:05.882 : en:01:29:05.882
    01:37:40.521 : en:01:37:40.521
    01:47:35.073 : en:01:47:35.073
    01:59:31.706 : en:01:59:31.706
4.0 из 10
голосов: 3
/10
/10
schultz 31-10-2016, 19:24
Информация
Посетители, находящиеся в группе Гости, не могут оставлять комментарии к данной публикации.