Панель пользователя
Регистрация

Воспользуйтесь социальными сетями для входа на https://freerutor.com

vk odnoklassniki facebook mailru yandex google
Популярное
Счетчик
Голосуй за нас
VIP на сайте
Популярное
Товары интернет магазина
загрузка...

Охотники за привидениями (2016) BDRip-AVC | Extended Cut | Лицензия | R.G.Resident

Охотники за привидениями (2016) BDRip-AVC | Extended Cut | Лицензия | R.G.Resident
Участники торрент обмена
Сидов Пиров Скачали
3 0 120
Характеристика
Размер Файлы
3.94 GB
Релиз группа
Поделиться раздачей
Фильмы (AVC)
Наименование: Охотники за привидениями
Оригинальное наименование: Ghostbusters
Категория: фантастика, фэнтези, боевик, комедия
Произведено: США, Австралия
Режиссер постановщик: Пол Фиг
В главных ролях: Мелисса МакКарти, Кристен Уиг, Кейт МакКиннон, Лесли Джонс, Крис Хемсворт, Сесили Стронг, Энди Гарсиа, Нил Кэйси, Чарльз Дэнс, Майкл Кеннет Уильямс
Краткое описание: Тридцать лет назад охотники за привидениями спасли Нью-Йорк от нашествия призраков, но теперь городу вновь угрожает опасность. Былые герои не могут стать на его защиту, но находятся и другие отважные люди, всю свою жизнь посвятившие изучению паранормальных явлений. Эбби Йейтс объединяется с Эрин Гилберт, пожалуй лучшим специалистом в квантовой физике, и вместе они собирают команду новых охотников за привидениями, в которую принимают отличного инженера Джиллиан Хольцман, сотрудницу метрополитена Пэтти Толан, знающую город как свои пять пальцев, и секретаря - настоящего красавчика Кэвина. Вместе они начинают борьбу с нечистой силой, терроризирующей мегаполис...
  • Видео данные: MPEG-4 AVC, 3000 Кбит/с, 1024x428
    Аудио данные: Русский, украинский (AC3, 6 ch, 384 Кбит/с), английский (АС3, 6 ch, 448 Кбит/с)
    Перевод: Дубляж - [Лицензия] | BD CEE
    Продолжительность: 02:13:44
    Субтитры: русские (Full), украинские (Full), английские (Full), английские (SDH)
  • Охотники за привидениями (2016) BDRip-AVC | Extended Cut | Лицензия | R.G.Resident Охотники за привидениями (2016) BDRip-AVC | Extended Cut | Лицензия | R.G.Resident Охотники за привидениями (2016) BDRip-AVC | Extended Cut | Лицензия | R.G.Resident
  • Общее
    Уникальный идентификатор : 253544464984602694675345301613315499091 (0xBEBEE34295A155609B5145A51E762453)
    Полное имя : D:downloadGhostbusters.2016.BDRip-AVC Extended Cut by schultz R.G.Resident.mkv
    Формат : Matroska
    Версия формата : Version 4 / Version 2
    Размер файла : 3,94 Гбайт
    Продолжительность : 2 ч. 13 м.
    Общий поток : 4219 Кбит/сек
    Дата кодирования : UTC 2016-10-31 11:20:26
    Программа кодирования : mkvmerge v8.9.0 ('Father Daughter') 64bit
    Библиотека кодирования : libebml v1.3.3 + libmatroska v1.4.4

    Видео
    Идентификатор : 1
    Формат : AVC
    Формат/Информация : Advanced Video Codec
    Профиль формата : High@L4.1
    Параметр CABAC формата : Да
    Параметр ReFrames формата : 12 кадров
    Идентификатор кодека : V_MPEG4/ISO/AVC
    Продолжительность : 2 ч. 13 м.
    Битрейт : 3000 Кбит/сек
    Ширина : 1024 пикселя
    Высота : 428 пикселей
    Соотношение сторон : 2,40:1
    Режим частоты кадров : Постоянный
    Частота кадров : 23,976 (23976/1000) кадра/сек
    Цветовое пространство : YUV
    Субдискретизация насыщенности : 4:2:0
    Битовая глубина : 8 бит
    Тип развёртки : Прогрессивная
    Бит/(Пиксели*Кадры) : 0.285
    Размер потока : 2,80 Гбайт (71%)
    Библиотека кодирования : x264 core 146 r2538 121396c
    Настройки программы : cabac=1 / ref=12 / deblock=1:-3:-3 / analyse=0x3:0x113 / me=umh / subme=11 / psy=1 / psy_rd=1.00:0.00 / mixed_ref=1 / me_range=48 / chroma_me=1 / trellis=2 / 8x8dct=1 / cqm=0 / deadzone=21,11 / fast_pskip=0 / chroma_qp_offset=-2 / threads=12 / lookahead_threads=3 / sliced_threads=0 / nr=0 / decimate=0 / interlaced=0 / bluray_compat=0 / constrained_intra=0 / bframes=11 / b_pyramid=2 / b_adapt=2 / b_bias=0 / direct=3 / weightb=1 / open_gop=0 / weightp=2 / keyint=240 / keyint_min=23 / scenecut=40 / intra_refresh=0 / rc_lookahead=40 / rc=2pass / mbtree=1 / bitrate=3000 / ratetol=1.0 / qcomp=0.60 / qpmin=0 / qpmax=69 / qpstep=4 / cplxblur=20.0 / qblur=0.5 / vbv_maxrate=50000 / vbv_bufsize=62500 / nal_hrd=none / filler=0 / ip_ratio=1.40 / aq=1:1.00
    Язык : English
    Default : Да
    Forced : Нет

    Аудио #1
    Идентификатор : 2
    Формат : AC-3
    Формат/Информация : Audio Coding 3
    Расширение режима : CM (complete main)
    Параметр Endianness формата : Big
    Идентификатор кодека : A_AC3
    Продолжительность : 2 ч. 13 м.
    Вид битрейта : Постоянный
    Битрейт : 384 Кбит/сек
    Каналы : 6 каналов
    Расположение каналов : Front: L C R, Side: L R, LFE
    Частота : 48,0 КГц
    Частота кадров : 31,250 кадров/сек (1536 spf)
    Метод сжатия : С потерями
    Размер потока : 367 Мбайт (9%)
    Язык : Russian
    Default : Да
    Forced : Нет

    Аудио #2
    Идентификатор : 3
    Формат : AC-3
    Формат/Информация : Audio Coding 3
    Расширение режима : CM (complete main)
    Параметр Endianness формата : Big
    Идентификатор кодека : A_AC3
    Продолжительность : 2 ч. 13 м.
    Вид битрейта : Постоянный
    Битрейт : 384 Кбит/сек
    Каналы : 6 каналов
    Расположение каналов : Front: L C R, Side: L R, LFE
    Частота : 48,0 КГц
    Частота кадров : 31,250 кадров/сек (1536 spf)
    Метод сжатия : С потерями
    Размер потока : 367 Мбайт (9%)
    Язык : Ukrainian
    Default : Нет
    Forced : Нет

    Аудио #3
    Идентификатор : 4
    Формат : AC-3
    Формат/Информация : Audio Coding 3
    Расширение режима : CM (complete main)
    Параметр Endianness формата : Big
    Идентификатор кодека : A_AC3
    Продолжительность : 2 ч. 13 м.
    Вид битрейта : Постоянный
    Битрейт : 448 Кбит/сек
    Каналы : 6 каналов
    Расположение каналов : Front: L C R, Side: L R, LFE
    Частота : 48,0 КГц
    Частота кадров : 31,250 кадров/сек (1536 spf)
    Метод сжатия : С потерями
    Размер потока : 429 Мбайт (11%)
    Язык : English
    Default : Нет
    Forced : Нет

    Текст #1
    Идентификатор : 5
    Формат : UTF-8
    Идентификатор кодека : S_TEXT/UTF8
    Идентификатор кодека/Информация : UTF-8 Plain Text
    Продолжительность : 2 ч. 12 м.
    Битрейт : 122 бит/сек
    Count of elements : 2390
    Размер потока : 119 Кбайт (0%)
    Заголовок : full
    Язык : Russian
    Default : Нет
    Forced : Нет

    Текст #2
    Идентификатор : 6
    Формат : UTF-8
    Идентификатор кодека : S_TEXT/UTF8
    Идентификатор кодека/Информация : UTF-8 Plain Text
    Продолжительность : 2 ч. 12 м.
    Битрейт : 126 бит/сек
    Count of elements : 2388
    Размер потока : 123 Кбайт (0%)
    Заголовок : full
    Язык : Ukrainian
    Default : Нет
    Forced : Нет

    Текст #3
    Идентификатор : 7
    Формат : UTF-8
    Идентификатор кодека : S_TEXT/UTF8
    Идентификатор кодека/Информация : UTF-8 Plain Text
    Продолжительность : 2 ч. 12 м.
    Битрейт : 92 бит/сек
    Count of elements : 2621
    Размер потока : 89,8 Кбайт (0%)
    Заголовок : Full
    Язык : English
    Default : Нет
    Forced : Нет

    Текст #4
    Идентификатор : 8
    Формат : UTF-8
    Идентификатор кодека : S_TEXT/UTF8
    Идентификатор кодека/Информация : UTF-8 Plain Text
    Продолжительность : 2 ч. 12 м.
    Битрейт : 100 бит/сек
    Count of elements : 2903
    Размер потока : 97,8 Кбайт (0%)
    Заголовок : SDH
    Язык : English
    Default : Нет
    Forced : Нет

    Меню
    00:00:00.000 : en:00:00:00.000
    00:10:26.626 : en:00:10:26.626
    00:17:52.405 : en:00:17:52.405
    00:23:00.879 : en:00:23:00.879
    00:28:51.521 : en:00:28:51.521
    00:37:36.629 : en:00:37:36.629
    00:42:48.566 : en:00:42:48.566
    00:49:06.068 : en:00:49:06.068
    01:00:15.153 : en:01:00:15.153
    01:05:10.073 : en:01:05:10.073
    01:10:32.978 : en:01:10:32.978
    01:16:51.940 : en:01:16:51.940
    01:29:05.882 : en:01:29:05.882
    01:37:40.521 : en:01:37:40.521
    01:47:35.073 : en:01:47:35.073
    01:59:31.706 : en:01:59:31.706
5.5 из 10
голосов: 2
/10
/10
Раздачу отредактировал: schultz - 31-10-2016, 14:48
По причине: (замена на лицензию)
schultz 31-10-2016, 14:48
Информация
Посетители, находящиеся в группе Гости, не могут оставлять комментарии к данной публикации.