Панель пользователя
Регистрация

Воспользуйтесь социальными сетями для входа на https://freerutor.com

vk odnoklassniki facebook mailru yandex google
Рекомендуем
Счетчик
Голосуй за нас
Популярное
Товары интернет магазина
загрузка...

Расплата (2016) BDRip 1080p | iTunes

Расплата (2016) BDRip 1080p | iTunes
Участники торрент обмена
Сидов Пиров Скачали
54 3 2029
Характеристика
Размер Файлы
9.76 GB
Релиз группа
Поделиться раздачей
Фильмы (720,1080,Blu-Ray)
Наименование: Расплата
Оригинальное наименование: The Accountant
Произведено: США, Electric City Entertainment, RatPac-Dune Entertainment, Warner Bros. Pictures, Zero Gravity Management
Категория: Боевик, триллер, драма, криминал
Режиссер постановщик: Гэвин О Коннор
В главных ролях: Бен Аффлек, Анна Кендрик, Дж.К. Симмонс, Джон Бернтал, Джеффри Тэмбор, Синтия Аддай-Робинсон, Джон Литгоу, Джин Смарт, Энди Умбергер, Элисон Райт
Краткое описание: Лента расскажет историю математического гения Кристиана Вульфа, который подрабатывает аудитором для самых опасных преступных организаций. Когда ему «на хвост» садится отдел по борьбе с преступностью Министерства финансов во главе с Рэем Кингом Кристиан решает найти себе законопослушного клиента и проводит аудит в компании по производству новейшей робототехники, где сотрудница финансового отдела обнаружила «нестыковочку» в миллионы долларов. Но стоит Кристиану взяться за счета и выйти на след, как в деле начинают появляться жертвы.
  • Видео: MPEG-4 AVC, 9909 Кбит/с, 1912x800
    Аудио: Русский (AC3, 6 ch, 384 Кбит/с), английский (AC3, 6 ch, 640 Кбит/с)
    Перевод: Дублированный (iTunes)
    Субтитры: Русские (форс, полные), английские (полные)
    Продолжительность: 02:07:54

    Без рекламы.
  • Расплата (2016) BDRip 1080p | iTunes Расплата (2016) BDRip 1080p | iTunes Расплата (2016) BDRip 1080p | iTunes
  • x264 [info]: frame I:1246 Avg QP:15.76 size:207928
    x264 [info]: frame P:35046 Avg QP:18.48 size: 88371
    x264 [info]: frame B:147707 Avg QP:20.39 size: 41584

    Общее
    Уникальный идентификатор : 181129743125084801615270369634259143158 (0x884451D1FC54330EAA8EE26487ED89F6)
    Полное имя : X:ATorrentThe.Accountant.2016.BDRip.1080p.(qqss44).mkv
    Формат : Matroska
    Версия формата : Version 2
    Размер файла : 9,76 Гбайт
    Продолжительность : 2 ч. 7 м.
    Общий поток : 10,9 Мбит/сек
    Название фильма : The.Accountant.(2016).BDRip.1080p.(qqss44)
    Дата кодирования : UTC 2016-12-27 21:13:33
    Программа кодирования : mkvmerge v7.9.0 ('Birds') 64bit
    Библиотека кодирования : libebml v1.3.1 + libmatroska v1.4.2

    Видео
    Идентификатор : 1
    Формат : AVC
    Формат/Информация : Advanced Video Codec
    Профиль формата : High@L4.1
    Параметр CABAC формата : Да
    Параметр ReFrames формата : 5 кадров
    Идентификатор кодека : V_MPEG4/ISO/AVC
    Продолжительность : 2 ч. 7 м.
    Битрейт : 9909 Кбит/сек
    Ширина : 1912 пикселей
    Высота : 800 пикселей
    Соотношение сторон : 2,40:1
    Режим частоты кадров : Постоянный
    Частота кадров : 23,976 (24000/1001) кадра/сек
    Цветовое пространство : YUV
    Субдискретизация насыщенности : 4:2:0
    Битовая глубина : 8 бит
    Тип развёртки : Прогрессивная
    Бит/(Пиксели*Кадры) : 0.270
    Размер потока : 8,85 Гбайт (91%)
    Заголовок : The.Accountant.(2016).BDRip.1080p.(qqss44)
    Библиотека кодирования : x264 core 148 r2744kMod b97ae06
    Настройки программы : cabac=1 / ref=5 / deblock=1:-3:-3 / analyse=0x3:0x133 / me=umh / subme=11 / psy=1 / fade_compensate=0.00 / psy_rd=1.00:0.00 / mixed_ref=1 / me_range=32 / chroma_me=1 / trellis=2 / 8x8dct=1 / cqm=0 / deadzone=21,11 / fast_pskip=0 / chroma_qp_offset=-2 / threads=12 / lookahead_threads=3 / sliced_threads=0 / nr=0 / decimate=0 / interlaced=0 / bluray_compat=0 / constrained_intra=0 / bframes=10 / b_pyramid=2 / b_adapt=2 / b_bias=0 / direct=3 / weightb=1 / open_gop=0 / weightp=2 / keyint=240 / keyint_min=23 / scenecut=40 / intra_refresh=0 / rc=2pass / mbtree=0 / bitrate=9909 / ratetol=1.0 / qcomp=0.70 / qpmin=0 / qpmax=69 / qpstep=4 / cplxblur=20.0 / qblur=0.5 / ip_ratio=1.40 / pb_ratio=1.30 / aq=3:0.90
    Язык : English
    Default : Да
    Forced : Нет

    Аудио #1
    Идентификатор : 2
    Формат : AC-3
    Формат/Информация : Audio Coding 3
    Расширение режима : CM (complete main)
    Параметр Endianness формата : Big
    Идентификатор кодека : A_AC3
    Продолжительность : 2 ч. 7 м.
    Вид битрейта : Постоянный
    Битрейт : 384 Кбит/сек
    Каналы : 6 каналов
    Расположение каналов : Front: L C R, Side: L R, LFE
    Частота : 48,0 КГц
    Частота кадров : 31,250 кадров/сек (1536 spf)
    Метод сжатия : С потерями
    Размер потока : 351 Мбайт (4%)
    Заголовок : DUB | DD5.1 @ 384 kbps
    Язык : Russian
    Default : Да
    Forced : Нет

    Аудио #2
    Идентификатор : 3
    Формат : AC-3
    Формат/Информация : Audio Coding 3
    Расширение режима : CM (complete main)
    Параметр Endianness формата : Big
    Идентификатор кодека : A_AC3
    Продолжительность : 2 ч. 7 м.
    Вид битрейта : Постоянный
    Битрейт : 640 Кбит/сек
    Каналы : 6 каналов
    Расположение каналов : Front: L C R, Side: L R, LFE
    Частота : 48,0 КГц
    Частота кадров : 31,250 кадров/сек (1536 spf)
    Метод сжатия : С потерями
    Размер потока : 586 Мбайт (6%)
    Заголовок : Original | DD5.1 @ 640 kbps
    Язык : English
    Default : Нет
    Forced : Нет

    Текст #1
    Идентификатор : 4
    Формат : UTF-8
    Идентификатор кодека : S_TEXT/UTF8
    Идентификатор кодека/Информация : UTF-8 Plain Text
    Продолжительность : 1 ч. 53 м.
    Битрейт : 2 бит/сек
    Count of elements : 39
    Размер потока : 2,04 Кбайт (0%)
    Заголовок : FORCED
    Язык : Russian
    Default : Да
    Forced : Нет

    Текст #2
    Идентификатор : 5
    Формат : UTF-8
    Идентификатор кодека : S_TEXT/UTF8
    Идентификатор кодека/Информация : UTF-8 Plain Text
    Продолжительность : 2 ч. 7 м.
    Битрейт : 94 бит/сек
    Count of elements : 1546
    Размер потока : 88,1 Кбайт (0%)
    Заголовок : FULL (iTunes)
    Язык : Russian
    Default : Нет
    Forced : Нет

    Текст #3
    Идентификатор : 6
    Формат : UTF-8
    Идентификатор кодека : S_TEXT/UTF8
    Идентификатор кодека/Информация : UTF-8 Plain Text
    Продолжительность : 2 ч. 0 м.
    Битрейт : 94 бит/сек
    Count of elements : 1295
    Размер потока : 83,0 Кбайт (0%)
    Заголовок : FULL (BONNIE)
    Язык : Russian
    Default : Нет
    Forced : Нет

    Текст #4
    Идентификатор : 7
    Формат : UTF-8
    Идентификатор кодека : S_TEXT/UTF8
    Идентификатор кодека/Информация : UTF-8 Plain Text
    Продолжительность : 1 ч. 58 м.
    Битрейт : 54 бит/сек
    Count of elements : 1495
    Размер потока : 47,5 Кбайт (0%)
    Заголовок : FULL
    Язык : English
    Default : Нет
    Forced : Нет

    Меню
    00:00:00.000 : en:00:00:00.000
    00:13:01.447 : en:00:13:01.447
    00:20:36.277 : en:00:20:36.277
    00:29:30.394 : en:00:29:30.394
    00:38:44.656 : en:00:38:44.656
    00:49:33.679 : en:00:49:33.679
    01:00:05.435 : en:01:00:05.435
    01:13:39.707 : en:01:13:39.707
    01:25:57.069 : en:01:25:57.069
    01:39:15.658 : en:01:39:15.658
    01:54:31.156 : en:01:54:31.156
    02:01:40.251 : en:02:01:40.251
8.6 из 10
голосов: 19
/10
/10
foster720p 27-12-2016, 22:52

cummins | 24-12-2016, 05:25 | Статус: Оффлайн

Вы че такие нетерпеливые как щеночки некормленные скулите - лицензия появится и будет и качество и звук
Каждый раз с выходом новинки этот скулеж - вот обосретесь прям если попозже на месяц увидите фильм , протите за грубость Никого оскорблять не хотел лично Просто этот один и тот же сценарий развития событий до выхода лицензии уже даже не смешит

AlexGAV | 16-12-2016, 17:19 | Статус: Оффлайн

Качество так себе

jjkl | 11-12-2016, 07:07 | Статус: Оффлайн

ну это не чистый звук, и эти сабы корейские бесят!

Serjerry | 3-12-2016, 21:30 | Статус: Оффлайн

Смотрел в кино. Ерунда полная.

zombik | 6-11-2016, 19:09 | Статус: Оффлайн

очень хороший,добротный триллер! По мне,так немного длинные некоторые диалоги,но это ни как не умаляет достоинства фильма. Смотрел в кинотеатре,тоесть в качестве и с эфектами.Советую.
Информация
Посетители, находящиеся в группе Гости, не могут оставлять комментарии к данной публикации.