Панель пользователя
Регистрация

Воспользуйтесь социальными сетями для входа на https://freerutor.com

vk odnoklassniki facebook mailru yandex google
Популярное
Счетчик
Голосуй за нас
VIP на сайте
Популярное
Товары интернет магазина
загрузка...

Хроники мстителя (2016) BDRip 1080p | iTunes

Хроники мстителя (2016)  BDRip 1080p | iTunes
Участники торрент обмена
Сидов Пиров Скачали
12 0 1178
Характеристика
Размер Файлы
8.64 GB
Поделиться раздачей
Фильмы (720,1080,Blu-Ray)
Наименование: Хроники мстителя
Оригинальное наименование: Vigilante Diaries
Категория: Боевик
Произведено: США / Oscar Gold Productions
Режиссер постановщик: Кристиан Сесма
В главных ролях: Джейсон Мьюз, Куинтон Джексон, Пол Слоун, Кевин Л. Уокер, Майкл Джей Уайт, Майкл Мэдсен, Майк Хаттон, Джеймс Руссо, Арман Ншанян, Сальвадор Герерро мл.
Краткое описание: Напряженный приключенческий фильм с участием героев 90-х и армянской мафии не даст вам заскучать.
  • Видео данные: MPEG-4 AVC, 10.4 Мбит/с, 1920x800
    Аудио данные: Русский (AC3, 6 ch, 384 Кбит/с), английский (AC3, 6 ch, 640 Кбит/с)
    Перевод: Дублированный [iTunes]
    Субтитры: Английские
    Продолжительность: 01:47:43
  • Хроники мстителя (2016)  BDRip 1080p | iTunes Хроники мстителя (2016)  BDRip 1080p | iTunes Хроники мстителя (2016)  BDRip 1080p | iTunes
  • Общее
    Уникальный идентификатор : 233839774599870152719803534982177961298 (0xAFEBE70447CE83CF9DBBFE85E82D3552)
    Полное имя : D:\загрузки\Xroniki.Mstuka.2016.D.BDRip.1080p.mkv
    Формат : Matroska
    Версия формата : Version 2
    Размер файла : 8,64 Гбайт
    Продолжительность : 2 ч. 3 м.
    Общий поток : 9989 Кбит/сек
    Дата кодирования : UTC 2016-10-29 20:10:06
    Программа кодирования : mkvmerge v7.8.0 ('River Man') 32bit built on Apr 3 2015 12:11:22
    Библиотека кодирования : libebml v1.3.1 + libmatroska v1.4.2

    Видео
    Идентификатор : 1
    Формат : AVC
    Формат/Информация : Advanced Video Codec
    Профиль формата : High@L4.1
    Параметр CABAC формата : Да
    Параметр ReFrames формата : 5 кадров
    Идентификатор кодека : V_MPEG4/ISO/AVC
    Продолжительность : 1 ч. 47 м.
    Битрейт : 10.4 Mbps
    Ширина : 1920 пикселей
    Высота : 800 пикселей
    Соотношение сторон : 2,40:1
    Режим частоты кадров : Постоянный
    Частота кадров : 23,976 кадра/сек
    Цветовое пространство : YUV
    Субдискретизация насыщенности : 4:2:0
    Битовая глубина : 8 бит
    Тип развёртки : Прогрессивная
    Бит/(Пиксели*Кадры) : 0.238
    Размер потока : 7,58 Гбайт (88%)
    Библиотека кодирования : x264 core 146 r2538 121396c
    Настройки программы : cabac=1 / ref=5 / deblock=1:-3:-3 / analyse=0x3:0x133 / me=tesa / subme=11 / psy=1 / psy_rd=1.04:0.00 / mixed_ref=1 / me_range=32 / chroma_me=1 / trellis=2 / 8x8dct=1 / cqm=0 / deadzone=21,11 / fast_pskip=0 / chroma_qp_offset=-2 / threads=60 / lookahead_threads=6 / sliced_threads=0 / nr=0 / decimate=0 / interlaced=0 / bluray_compat=0 / constrained_intra=0 / bframes=12 / b_pyramid=2 / b_adapt=2 / b_bias=0 / direct=3 / weightb=1 / open_gop=0 / weightp=2 / keyint=240 / keyint_min=23 / scenecut=40 / intra_refresh=0 / rc_lookahead=150 / rc=crf / mbtree=0 / crf=17.5 / qcomp=0.60 / qpmin=0 / qpmax=69 / qpstep=4 / vbv_maxrate=62500 / vbv_bufsize=78125 / crf_max=0.0 / nal_hrd=none / filler=0 / ip_ratio=1.40 / pb_ratio=1.30 / aq=1:0.80
    Язык : English
    Default : Да
    Forced : Нет

    Аудио #1
    Идентификатор : 2
    Формат : AC-3
    Формат/Информация : Audio Coding 3
    Расширение режима : CM (complete main)
    Параметр Endianness формата : Big
    Идентификатор кодека : A_AC3
    Продолжительность : 2 ч. 3 м.
    Вид битрейта : Постоянный
    Битрейт : 384 Кбит/сек
    Каналы : 6 каналов
    Расположение каналов : Front: L C R, Side: L R, LFE
    Частота : 48,0 КГц
    Битовая глубина : 16 бит
    Метод сжатия : С потерями
    Размер потока : 340 Мбайт (4%)
    Заголовок : iTunes
    Язык : Russian
    Default : Да
    Forced : Нет

    Аудио #2
    Идентификатор : 3
    Формат : AC-3
    Формат/Информация : Audio Coding 3
    Расширение режима : CM (complete main)
    Параметр Endianness формата : Big
    Идентификатор кодека : A_AC3
    Продолжительность : 2 ч. 3 м.
    Вид битрейта : Постоянный
    Битрейт : 640 Кбит/сек
    Каналы : 6 каналов
    Расположение каналов : Front: L C R, Side: L R, LFE
    Частота : 48,0 КГц
    Битовая глубина : 16 бит
    Метод сжатия : С потерями
    Размер потока : 567 Мбайт (6%)
    Язык : English
    Default : Нет
    Forced : Нет

    Текст #1
    Идентификатор : 4
    Формат : UTF-8
    Идентификатор кодека : S_TEXT/UTF8
    Идентификатор кодека/Информация : UTF-8 Plain Text
    Заголовок : Full
    Язык : English
    Default : Нет
    Forced : Нет

    Текст #2
    Идентификатор : 5
    Формат : UTF-8
    Идентификатор кодека : S_TEXT/UTF8
    Идентификатор кодека/Информация : UTF-8 Plain Text
    Заголовок : SDH
    Язык : English
    Default : Нет
    Forced : Нет

    Меню
    00:00:00.000 : en:Chapter 1
    00:06:45.614 : en:Chapter 2
    00:13:31.144 : en:Chapter 3
    00:25:52.259 : en:Chapter 4
    00:36:45.412 : en:Chapter 5
    00:47:00.651 : en:Chapter 6
    00:52:48.374 : en:Chapter 7
    00:59:03.248 : en:Chapter 8
    01:05:51.281 : en:Chapter 9
    01:23:02.144 : en:Chapter 10
    01:37:22.336 : en:Chapter 11
    01:41:55.276 : en:Chapter 12
9.8 из 10
голосов: 4
/10
/10
karta 29-10-2016, 23:19
Информация
Посетители, находящиеся в группе Гости, не могут оставлять комментарии к данной публикации.