Панель пользователя
Регистрация

Воспользуйтесь социальными сетями для входа на https://freerutor.com

vk odnoklassniki facebook mailru yandex google
Популярное
Счетчик
Голосуй за нас
VIP на сайте
Популярное
Товары интернет магазина
загрузка...

Гений (2016) BDRip-AVC | Лицензия | R.G.Resident

Гений (2016) BDRip-AVC | Лицензия | R.G.Resident
Участники торрент обмена
Сидов Пиров Скачали
6 0 223
Характеристика
Размер Файлы
2.25 GB
Релиз группа
Поделиться раздачей
Фильмы (AVC)
Наименование: Гений
Оригинальное наименование: Genius
Категория: драма, биография
Произведено: Великобритания, США
Режиссер постановщик: Майкл Грандадж
В главных ролях: Николь Кидман, Джуд Лоу, Колин Фёрт, Гай Пирс, Лора Линни, Доминик Уэст, Ванесса Кирби, Марк Арнольд, Джейн Перри, Бернард Коллако
Краткое описание: История о непростой дружбе двух очень талантливых людей: писателя Томаса Вулфа и издателя Макса Перкинса, открывшего всему миру таких великих романистов, как Ф. Скотт Фицджеральд и Эрнест Хемингуэй.
  • Видео данные: MPEG-4 AVC, 2653 Кбит/с, 1024x576
    Аудио данные: Русский (AC3, 6 ch, 448 Кбит/с)
    Перевод: Не требуется (русский) | BD RUS
    Продолжительность: 01:44:00
  • Гений (2016) BDRip-AVC | Лицензия | R.G.Resident Гений (2016) BDRip-AVC | Лицензия | R.G.Resident Гений (2016) BDRip-AVC | Лицензия | R.G.Resident
  • General
    Unique ID : 227731550082811360576533161701528307814 (0xAB53804BEE6E66CC98EE0C8AB0700866)
    Complete name : D:\download\GENIUS.2016.BDRip-AVC by schultz R.G.Resident.mkv
    Format : Matroska
    Format version : Version 4 / Version 2
    File size : 2.25 GiB
    Duration : 1 h 44 min
    Overall bit rate : 3 099 kb/s
    Encoded date : UTC 2016-10-29 15:30:17
    Writing application : mkvmerge v8.9.0 ('Father Daughter') 64bit
    Writing library : libebml v1.3.3 + libmatroska v1.4.4

    Video
    ID : 1
    Format : AVC
    Format/Info : Advanced Video Codec
    Format profile : High@L4.1
    Format settings, CABAC : Yes
    Format settings, ReFrames : 12 frames
    Codec ID : V_MPEG4/ISO/AVC
    Duration : 1 h 44 min
    Bit rate : 2 653 kb/s
    Width : 1 024 pixels
    Height : 576 pixels
    Display aspect ratio : 16:9
    Frame rate mode : Constant
    Frame rate : 23.976 (23976/1000) FPS
    Color space : YUV
    Chroma subsampling : 4:2:0
    Bit depth : 8 bits
    Scan type : Progressive
    Bits/(Pixel*Frame) : 0.188
    Stream size : 1.92 GiB (85%)
    Writing library : x264 core 146 r2538 121396c
    Encoding settings : cabac=1 / ref=12 / deblock=1:-3:-3 / analyse=0x3:0x113 / me=umh / subme=11 / psy=1 / psy_rd=1.00:0.00 / mixed_ref=1 / me_range=48 / chroma_me=1 / trellis=2 / 8x8dct=1 / cqm=0 / deadzone=21,11 / fast_pskip=0 / chroma_qp_offset=-2 / threads=12 / lookahead_threads=3 / sliced_threads=0 / nr=0 / decimate=0 / interlaced=0 / bluray_compat=0 / constrained_intra=0 / bframes=11 / b_pyramid=2 / b_adapt=2 / b_bias=0 / direct=3 / weightb=1 / open_gop=0 / weightp=2 / keyint=240 / keyint_min=23 / scenecut=40 / intra_refresh=0 / rc_lookahead=40 / rc=2pass / mbtree=1 / bitrate=2653 / ratetol=1.0 / qcomp=0.60 / qpmin=0 / qpmax=69 / qpstep=4 / cplxblur=20.0 / qblur=0.5 / vbv_maxrate=50000 / vbv_bufsize=62500 / nal_hrd=none / filler=0 / ip_ratio=1.40 / aq=1:1.00
    Language : English
    Default : Yes
    Forced : No

    Audio
    ID : 2
    Format : AC-3
    Format/Info : Audio Coding 3
    Mode extension : CM (complete main)
    Format settings, Endianness : Big
    Codec ID : A_AC3
    Duration : 1 h 44 min
    Bit rate mode : Constant
    Bit rate : 448 kb/s
    Channel(s) : 6 channels
    Channel positions : Front: L C R, Side: L R, LFE
    Sampling rate : 48.0 kHz
    Frame rate : 31.250 FPS (1536 spf)
    Compression mode : Lossy
    Stream size : 333 MiB (14%)
    Language : Russian
    Default : Yes
    Forced : No

    Menu
    00:00:00.000 : en:(01)00:00:00:000
    00:01:33.635 : en:(02)00:01:33:635
    00:14:04.969 : en:(03)00:14:04:969
    00:26:40.599 : en:(04)00:26:40:599
    00:40:13.411 : en:(05)00:40:13:411
    00:52:36.111 : en:(06)00:52:36:111
    01:03:02.069 : en:(07)01:03:02:069
    01:15:28.148 : en:(08)01:15:28:148
    01:31:41.579 : en:(09)01:31:41:579
10.0 из 10
голосов: 3
/10
/10
schultz 29-10-2016, 19:20
Информация
Посетители, находящиеся в группе Гости, не могут оставлять комментарии к данной публикации.