Панель пользователя
Регистрация

Воспользуйтесь социальными сетями для входа на https://freerutor.com

vk odnoklassniki facebook mailru yandex google
Популярное
Счетчик
Голосуй за нас
VIP на сайте
Популярное
Товары интернет магазина
загрузка...

В поисках Дори (2016) BDRip-AVC | iTunes | R.G.Resident

В поисках Дори (2016) BDRip-AVC | iTunes | R.G.Resident
Участники торрент обмена
Сидов Пиров Скачали
27 0 946
Характеристика
Размер Файлы
2.59 GB
Релиз группа
Поделиться раздачей
Мультфильмы
Наименование: В поисках Дори
Оригинальное наименование: Finding Dory
Категория: мультфильм, комедия, приключения, семейный
Произведено: США
Режиссер постановщик: Эндрю Стэнтон, Энгус МакЛэйн
В главных ролях: Эллен ДеДженерес, Альберт Брукс, Эд О’Нил, Кэйтлин Олсон, Хайден Роуленс, Тай Буррелл, Дайан Китон, Юджин Леви, Слоун Мюррэй, Идрис Эльба
Краткое описание: Дори - синяя доброжелательная рыбка-хирург, страдающая провалами в памяти. Она упорно стремится избавиться от своего недуга и найти свою семью.
  • Видео данные: MPEG-4 AVC, 2990 Кбит/с, 1024x576
    Аудио данные: Русский (AC3, 6 ch, 384 Кбит/с), английский (АС3, 6 ch, 448 Кбит/с)
    Перевод: Дубляж - [iTunes]
    Продолжительность: 01:37:03
    Субтитры: русские (Full), английские (Full), английские (SDH)
  • В поисках Дори (2016) BDRip-AVC | iTunes | R.G.Resident В поисках Дори (2016) BDRip-AVC | iTunes | R.G.Resident В поисках Дори (2016) BDRip-AVC | iTunes | R.G.Resident
  • General
    Unique ID : 187557080302899459415238791136521669058 (0x8D1A2E025FA9C6B79BDEA7449ADEC9C2)
    Complete name : D:\download\Finding.Dory.2016.BDRip-AVC by schultz R.G.Resident.mkv
    Format : Matroska
    Format version : Version 4 / Version 2
    File size : 2.59 GiB
    Duration : 1 h 37 min
    Overall bit rate : 3 825 kb/s
    Encoded date : UTC 2016-10-27 10:58:30
    Writing application : mkvmerge v8.9.0 ('Father Daughter') 64bit
    Writing library : libebml v1.3.3 + libmatroska v1.4.4

    Video
    ID : 1
    Format : AVC
    Format/Info : Advanced Video Codec
    Format profile : High@L4.1
    Format settings, CABAC : Yes
    Format settings, ReFrames : 12 frames
    Codec ID : V_MPEG4/ISO/AVC
    Duration : 1 h 37 min
    Bit rate : 2 990 kb/s
    Width : 1 024 pixels
    Height : 576 pixels
    Display aspect ratio : 16:9
    Frame rate mode : Constant
    Frame rate : 23.976 (23976/1000) FPS
    Color space : YUV
    Chroma subsampling : 4:2:0
    Bit depth : 8 bits
    Scan type : Progressive
    Bits/(Pixel*Frame) : 0.211
    Stream size : 2.03 GiB (78%)
    Writing library : x264 core 146 r2538 121396c
    Encoding settings : cabac=1 / ref=12 / deblock=1:-3:-3 / analyse=0x3:0x113 / me=umh / subme=11 / psy=1 / psy_rd=1.00:0.00 / mixed_ref=1 / me_range=48 / chroma_me=1 / trellis=2 / 8x8dct=1 / cqm=0 / deadzone=21,11 / fast_pskip=0 / chroma_qp_offset=-2 / threads=12 / lookahead_threads=3 / sliced_threads=0 / nr=0 / decimate=0 / interlaced=0 / bluray_compat=0 / constrained_intra=0 / bframes=11 / b_pyramid=2 / b_adapt=2 / b_bias=0 / direct=3 / weightb=1 / open_gop=0 / weightp=2 / keyint=240 / keyint_min=23 / scenecut=40 / intra_refresh=0 / rc_lookahead=40 / rc=2pass / mbtree=1 / bitrate=2990 / ratetol=1.0 / qcomp=0.60 / qpmin=0 / qpmax=69 / qpstep=4 / cplxblur=20.0 / qblur=0.5 / vbv_maxrate=50000 / vbv_bufsize=62500 / nal_hrd=none / filler=0 / ip_ratio=1.40 / aq=1:1.00
    Language : English
    Default : Yes
    Forced : No

    Audio #1
    ID : 2
    Format : AC-3
    Format/Info : Audio Coding 3
    Mode extension : CM (complete main)
    Format settings, Endianness : Big
    Codec ID : A_AC3
    Duration : 1 h 37 min
    Bit rate mode : Constant
    Bit rate : 384 kb/s
    Channel(s) : 6 channels
    Channel positions : Front: L C R, Side: L R, LFE
    Sampling rate : 48.0 kHz
    Frame rate : 31.250 FPS (1536 spf)
    Compression mode : Lossy
    Stream size : 267 MiB (10%)
    Language : Russian
    Default : Yes
    Forced : No

    Audio #2
    ID : 3
    Format : AC-3
    Format/Info : Audio Coding 3
    Mode extension : CM (complete main)
    Format settings, Endianness : Big
    Codec ID : A_AC3
    Duration : 1 h 37 min
    Bit rate mode : Constant
    Bit rate : 448 kb/s
    Channel(s) : 6 channels
    Channel positions : Front: L C R, Side: L R, LFE
    Sampling rate : 48.0 kHz
    Frame rate : 31.250 FPS (1536 spf)
    Compression mode : Lossy
    Stream size : 311 MiB (12%)
    Language : English
    Default : No
    Forced : No

    Text #1
    ID : 4
    Format : UTF-8
    Codec ID : S_TEXT/UTF8
    Codec ID/Info : UTF-8 Plain Text
    Duration : 1 h 35 min
    Bit rate : 127 b/s
    Count of elements : 1469
    Stream size : 89.0 KiB (0%)
    Title : Full
    Language : Russian
    Default : No
    Forced : No

    Text #2
    ID : 5
    Format : UTF-8
    Codec ID : S_TEXT/UTF8
    Codec ID/Info : UTF-8 Plain Text
    Duration : 1 h 35 min
    Bit rate : 85 b/s
    Count of elements : 1578
    Stream size : 59.3 KiB (0%)
    Title : Full
    Language : English
    Default : No
    Forced : No

    Text #3
    ID : 6
    Format : UTF-8
    Codec ID : S_TEXT/UTF8
    Codec ID/Info : UTF-8 Plain Text
    Duration : 1 h 35 min
    Bit rate : 92 b/s
    Count of elements : 1764
    Stream size : 64.6 KiB (0%)
    Title : SDH
    Language : English
    Default : No
    Forced : No

    Menu
    00:00:00.000 : en:00:00:00.000
    00:02:35.739 : en:00:02:35.739
    00:06:50.243 : en:00:06:50.243
    00:10:53.194 : en:00:10:53.194
    00:13:33.187 : en:00:13:33.187
    00:15:25.132 : en:00:15:25.132
    00:17:03.314 : en:00:17:03.314
    00:19:35.466 : en:00:19:35.466
    00:21:35.294 : en:00:21:35.294
    00:24:58.705 : en:00:24:58.705
    00:27:08.543 : en:00:27:08.543
    00:30:33.206 : en:00:30:33.206
    00:35:00.265 : en:00:35:00.265
    00:37:52.020 : en:00:37:52.020
    00:40:17.999 : en:00:40:17.999
    00:41:06.672 : en:00:41:06.672
    00:42:30.423 : en:00:42:30.423
    00:46:03.427 : en:00:46:03.427
    00:48:41.710 : en:00:48:41.710
    00:50:27.858 : en:00:50:27.858
    00:55:06.678 : en:00:55:06.678
    00:57:05.839 : en:00:57:05.839
    01:00:41.346 : en:01:00:41.346
    01:04:32.952 : en:01:04:32.952
    01:10:36.816 : en:01:10:36.816
    01:12:28.302 : en:01:12:28.302
    01:14:09.862 : en:01:14:09.862
    01:18:26.493 : en:01:18:26.493
    01:26:49.329 : en:01:26:49.329
10.0 из 10
голосов: 5
/10
/10
schultz 27-10-2016, 14:37

u300 | 27-10-2016, 15:38 | Статус: Оффлайн

ВИДЕОРЯД НЕ ЛОКАЛИЗОВАННЫЙ!!

u300 | 27-10-2016, 14:50 | Статус: Оффлайн

Раздавать то кто нибудь будет!?
Информация
Посетители, находящиеся в группе Гости, не могут оставлять комментарии к данной публикации.