Панель пользователя
Регистрация

Воспользуйтесь социальными сетями для входа на https://freerutor.com

vk odnoklassniki facebook mailru yandex google
Популярное
Счетчик
Голосуй за нас
VIP на сайте
Популярное
Товары интернет магазина
загрузка...

Очень плохие мамочки (2016) BDRip 720р | iTunes | R.G.Resident

Очень плохие мамочки (2016) BDRip 720р | iTunes | R.G.Resident
Участники торрент обмена
Сидов Пиров Скачали
52 3 3854
Характеристика
Размер Файлы
5.42 GB
Релиз группа
Поделиться раздачей
Фильмы (720,1080,Blu-Ray)
Наименование: Очень плохие мамочки
Оригинальное наименование: Bad Moms
Категория: комедия
Произведено: США
Режиссер постановщик: Джон Лукас , Скотт Мур
В главных ролях: Мила Кунис, Кэтрин Хан, Кристен Белл, Кристина Эпплгейт, Джада Пинкетт Смит, Энни Мумоло, Уна Лоуренс, Эмджей Энтони
Краткое описание: Идеальная мать, прекрасная жена, хорошая домохозяйка с успешной карьерой... Но стоит немного расслабиться, как тебе сразу напоминают о твоих обязанностях. Почему только мужчины имеют право развлекаться? Сколько же можно это терпеть?! Пора команде отчаянных мамочек пуститься во все тяжкие.
  • Видео данные: MPEG-4 AVC, 5800 Кбит/с, 1280x534
    Аудио данные: Русский (AC3, 6 ch, 384 Кбит/с), английский (DTS, 6 ch, 1509 Кбит/с)
    Перевод: Дубляж - [iTunes]
    Продолжительность: 01:40:57
    Субтитры: английские (full), английские (SDH)
  • Очень плохие мамочки (2016) BDRip 720р | iTunes | R.G.Resident Очень плохие мамочки (2016) BDRip 720р | iTunes | R.G.Resident Очень плохие мамочки (2016) BDRip 720р | iTunes | R.G.Resident
  • x264 [info]: frame I:1463 Avg QP:13.03 size:178923
    x264 [info]: frame P:32133 Avg QP:16.22 size: 59226
    x264 [info]: frame B:111627 Avg QP:18.31 size: 19916

    General
    Unique ID : 216432891758979883062122204015408464625 (0xA2D3756E99F81D74B70612AB5FA442F1)
    Complete name : D:downloadBad.Moms.2016.BDRip 720р by schultz R.G.Resident.mkv
    Format : Matroska
    Format version : Version 4 / Version 2
    File size : 5.42 GiB
    Duration : 1 h 40 min
    Overall bit rate : 7 692 kb/s
    Encoded date : UTC 2016-10-27 00:14:11
    Writing application : mkvmerge v8.9.0 ('Father Daughter') 64bit
    Writing library : libebml v1.3.3 + libmatroska v1.4.4

    Video
    ID : 1
    Format : AVC
    Format/Info : Advanced Video Codec
    Format profile : High@L4.1
    Format settings, CABAC : Yes
    Format settings, ReFrames : 12 frames
    Codec ID : V_MPEG4/ISO/AVC
    Duration : 1 h 40 min
    Bit rate : 5 800 kb/s
    Width : 1 280 pixels
    Height : 534 pixels
    Display aspect ratio : 2.40:1
    Frame rate mode : Constant
    Frame rate : 23.976 (23976/1000) FPS
    Color space : YUV
    Chroma subsampling : 4:2:0
    Bit depth : 8 bits
    Scan type : Progressive
    Bits/(Pixel*Frame) : 0.354
    Stream size : 4.09 GiB (75%)
    Writing library : x264 core 146 r2538 121396c
    Encoding settings : cabac=1 / ref=12 / deblock=1:-3:-3 / analyse=0x3:0x113 / me=umh / subme=11 / psy=1 / psy_rd=1.00:0.00 / mixed_ref=1 / me_range=48 / chroma_me=1 / trellis=2 / 8x8dct=1 / cqm=0 / deadzone=21,11 / fast_pskip=0 / chroma_qp_offset=-2 / threads=12 / lookahead_threads=3 / sliced_threads=0 / nr=0 / decimate=0 / interlaced=0 / bluray_compat=0 / constrained_intra=0 / bframes=11 / b_pyramid=2 / b_adapt=2 / b_bias=0 / direct=3 / weightb=1 / open_gop=0 / weightp=2 / keyint=240 / keyint_min=23 / scenecut=40 / intra_refresh=0 / rc_lookahead=40 / rc=2pass / mbtree=1 / bitrate=5800 / ratetol=1.0 / qcomp=0.60 / qpmin=0 / qpmax=69 / qpstep=4 / cplxblur=20.0 / qblur=0.5 / vbv_maxrate=50000 / vbv_bufsize=62500 / nal_hrd=none / filler=0 / ip_ratio=1.40 / aq=1:1.00
    Language : English
    Default : Yes
    Forced : No

    Audio #1
    ID : 2
    Format : AC-3
    Format/Info : Audio Coding 3
    Mode extension : CM (complete main)
    Format settings, Endianness : Big
    Codec ID : A_AC3
    Duration : 1 h 40 min
    Bit rate mode : Constant
    Bit rate : 384 kb/s
    Channel(s) : 6 channels
    Channel positions : Front: L C R, Side: L R, LFE
    Sampling rate : 48.0 kHz
    Frame rate : 31.250 FPS (1536 spf)
    Compression mode : Lossy
    Stream size : 277 MiB (5%)
    Language : Russian
    Default : Yes
    Forced : No

    Audio #2
    ID : 3
    Format : DTS
    Format/Info : Digital Theater Systems
    Mode : 16
    Format settings, Endianness : Big
    Codec ID : A_DTS
    Duration : 1 h 40 min
    Bit rate mode : Constant
    Bit rate : 1 509 kb/s
    Channel(s) : 6 channels
    Channel positions : Front: L C R, Side: L R, LFE
    Sampling rate : 48.0 kHz
    Frame rate : 93.750 FPS (512 spf)
    Bit depth : 24 bits
    Compression mode : Lossy
    Stream size : 1.06 GiB (20%)
    Language : English
    Default : No
    Forced : No

    Text #1
    ID : 4
    Format : UTF-8
    Codec ID : S_TEXT/UTF8
    Codec ID/Info : UTF-8 Plain Text
    Duration : 1 h 35 min
    Bit rate : 93 b/s
    Count of elements : 2073
    Stream size : 65.2 KiB (0%)
    Title : full
    Language : English
    Default : No
    Forced : No

    Text #2
    ID : 5
    Format : UTF-8
    Codec ID : S_TEXT/UTF8
    Codec ID/Info : UTF-8 Plain Text
    Duration : 1 h 35 min
    Bit rate : 92 b/s
    Count of elements : 2074
    Stream size : 64.8 KiB (0%)
    Title : SDH
    Language : English
    Default : No
    Forced : No

    Menu
    00:00:00.000 : en:Chapter 1
    00:04:58.548 : en:Chapter 2
    00:09:17.056 : en:Chapter 3
    00:16:04.839 : en:Chapter 4
    00:21:45.221 : en:Chapter 5
    00:26:46.271 : en:Chapter 6
    00:29:36.149 : en:Chapter 7
    00:35:35.508 : en:Chapter 8
    00:39:20.900 : en:Chapter 9
    00:44:41.012 : en:Chapter 10
    00:48:33.202 : en:Chapter 11
    00:53:43.178 : en:Chapter 12
    00:59:08.503 : en:Chapter 13
    01:04:24.110 : en:Chapter 14
    01:08:55.882 : en:Chapter 15
    01:14:03.856 : en:Chapter 16
    01:18:57.358 : en:Chapter 17
    01:23:48.982 : en:Chapter 18
    01:26:58.713 : en:Chapter 19
    01:32:59.073 : en:Chapter 20

5.7 из 10
голосов: 7
/10
/10
schultz 27-10-2016, 03:48

rizr | 27-10-2016, 21:09 | Статус: Оффлайн

а чем отличается данный релиз(RGResident) от обычного itunes??
Информация
Посетители, находящиеся в группе Гости, не могут оставлять комментарии к данной публикации.