Панель пользователя
Регистрация

Воспользуйтесь социальными сетями для входа на https://freerutor.com

vk odnoklassniki facebook mailru yandex google
Популярное
Счетчик
Голосуй за нас
VIP на сайте
Популярное
Товары интернет магазина
загрузка...

Большой и добрый великан (2016) BDRip 720p | Чистый звук

Большой и добрый великан (2016) BDRip  720p | Чистый звук
Участники торрент обмена
Сидов Пиров Скачали
249 14 8374
Характеристика
Размер Файлы
4.62 GB
Поделиться раздачей
Фильмы (720,1080,Blu-Ray)
Наименование: Большой и добрый великан
Оригинальное наименование: The BFG
Произведено: Великобритания, Канада, США
Категория: фэнтези, приключения, семейный
Режиссер постановщик: Стивен Спилберг
В главных ролях: Марк Райлэнс, Руби Барнхилл, Пенелопа Уилтон, Джемейн Клемент, Ребекка Холл, Рейф Сполл, Билл Хейдер, Оулавюр Дарри Оулафссон, Адам Годли, Майкл Адамуэйт
Краткое описание: В центре истории девочка по имени Софи, которая не смогла заснуть до полуночи и в окошко увидела огромного великана, который подходил к соседним домам и начинал дуть в окна спален. В полном соответствии со старинными поверьями и детскими страшилками, великан увидел Софи и унес к себе домой, в страну великанов.
Как оказалось, он в этой самой стране был единственным добрым великаном: действуя в обстановке строжайшей секретности, он коллекционировал хорошие сны, которые по ночам раздавал детям. Уши у него устроены таким образом, что он слышит, что и о чем снится ребятам, и никогда не позволяет им видеть кошмары.
  • Видео данные: MPEG-4 AVC, 4819 Кбит/с, 1280x536
    Аудио данные: Русский (AC3, 2 ch, 192 Кбит/с), английский (AC3, 6 ch, 640 Кбит/с)
    Перевод: Дублированный (Чистый звук)
    Субтитры: Английские
    Продолжительность: 01:57:24
  • Большой и добрый великан (2016) BDRip  720p | Чистый звук Большой и добрый великан (2016) BDRip  720p | Чистый звук
  • General
    Unique ID : 233238821351359126778624431381082499189 (0xAF7829BBE7136EBDB54FD040C7AF6875)
    Complete name : G:\Video\The.BFG.2016.BDRip.720p.ExKinoRay.mkv
    Format : Matroska
    Format version : Version 4 / Version 2
    File size : 4.62 GiB
    Duration : 1 h 57 min
    Overall bit rate : 5 653 kb/s
    Movie name : The.BFG.2016.***селезень***
    Encoded date : UTC 2016-11-16 19:34:56
    Writing application : mkvmerge v8.3.0 ('Over the Horizon') 64bit
    Writing library : libebml v1.3.1 + libmatroska v1.4.2

    Video
    ID : 1
    Format : AVC
    Format/Info : Advanced Video Codec
    Format profile : High@L4.1
    Format settings, CABAC : Yes
    Format settings, ReFrames : 12 frames
    Codec ID : V_MPEG4/ISO/AVC
    Duration : 1 h 57 min
    Bit rate : 4 819 kb/s
    Width : 1 280 pixels
    Height : 536 pixels
    Display aspect ratio : 2.40:1
    Frame rate mode : Constant
    Frame rate : 23.976 (24000/1001) FPS
    Color space : YUV
    Chroma subsampling : 4:2:0
    Bit depth : 8 bits
    Scan type : Progressive
    Bits/(Pixel*Frame) : 0.293
    Stream size : 3.94 GiB (85%)
    Title : The.BFG.2016.***селезень***
    Writing library : x264 core 148 r2721kMod 72d53ab
    Encoding settings : cabac=1 / ref=12 / deblock=1:-3:-3 / analyse=0x3:0x133 / me=umh / subme=10 / psy=1 / fade_compensate=0.00 / psy_rd=1.02:0.00 / mixed_ref=1 / me_range=24 / chroma_me=1 / trellis=2 / 8x8dct=1 / cqm=0 / deadzone=21,11 / fast_pskip=0 / chroma_qp_offset=-2 / threads=12 / lookahead_threads=2 / sliced_threads=0 / nr=0 / decimate=0 / interlaced=0 / bluray_compat=0 / constrained_intra=0 / fgo=0 / bframes=8 / b_pyramid=2 / b_adapt=2 / b_bias=0 / direct=3 / weightb=1 / open_gop=0 / weightp=2 / keyint=250 / keyint_min=23 / scenecut=40 / intra_refresh=0 / rc_lookahead=60 / rc=crf / mbtree=0 / crf=15.8000 / qcomp=0.65 / qpmin=0 / qpmax=69 / qpstep=4 / vbv_maxrate=62500 / vbv_bufsize=78125 / crf_max=0.0 / nal_hrd=none / filler=0 / ip_ratio=1.30 / pb_ratio=1.20 / aq=3:0.80
    Language : English
    Default : Yes
    Forced : No
    Color range : Limited
    Matrix coefficients : BT.709

    Audio #1
    ID : 2
    Format : AC-3
    Format/Info : Audio Coding 3
    Mode extension : CM (complete main)
    Format settings, Endianness : Big
    Codec ID : A_AC3
    Duration : 1 h 57 min
    Bit rate mode : Constant
    Bit rate : 192 kb/s
    Channel(s) : 2 channels
    Channel positions : Front: L R
    Sampling rate : 48.0 kHz
    Frame rate : 31.250 FPS (1536 spf)
    Bit depth : 16 bits
    Compression mode : Lossy
    Stream size : 161 MiB (3%)
    Title : Line
    Language : Russian
    Default : Yes
    Forced : No

    Audio #2
    ID : 3
    Format : AC-3
    Format/Info : Audio Coding 3
    Mode extension : CM (complete main)
    Format settings, Endianness : Big
    Codec ID : A_AC3
    Duration : 1 h 57 min
    Bit rate mode : Constant
    Bit rate : 640 kb/s
    Channel(s) : 6 channels
    Channel positions : Front: L C R, Side: L R, LFE
    Sampling rate : 48.0 kHz
    Frame rate : 31.250 FPS (1536 spf)
    Bit depth : 16 bits
    Compression mode : Lossy
    Stream size : 536 MiB (11%)
    Title : Original
    Language : English
    Default : No
    Forced : No

    Text #1
    ID : 4
    Format : UTF-8
    Codec ID : S_TEXT/UTF8
    Codec ID/Info : UTF-8 Plain Text
    Duration : 1 h 45 min
    Bit rate : 32 b/s
    Count of elements : 928
    Stream size : 24.8 KiB (0%)
    Title : Full
    Language : English
    Default : No
    Forced : No

    Text #2
    ID : 5
    Format : UTF-8
    Codec ID : S_TEXT/UTF8
    Codec ID/Info : UTF-8 Plain Text
    Duration : 1 h 47 min
    Bit rate : 37 b/s
    Count of elements : 1205
    Stream size : 29.9 KiB (0%)
    Title : SDH
    Language : English
    Default : No
    Forced : No

    Menu
    00:00:00.000 : en:00:00:00.000
    00:03:33.463 : en:00:03:33.463
    00:08:02.732 : en:00:08:02.732
    00:14:05.178 : en:00:14:05.178
    00:19:45.851 : en:00:19:45.851
    00:24:50.030 : en:00:24:50.030
    00:28:29.541 : en:00:28:29.541
    00:33:33.094 : en:00:33:33.094
    00:36:51.418 : en:00:36:51.418
    00:41:04.295 : en:00:41:04.295
    00:45:48.245 : en:00:45:48.245
    00:51:52.401 : en:00:51:52.401
    00:57:36.662 : en:00:57:36.662
    01:03:46.239 : en:01:03:46.239
    01:13:41.917 : en:01:13:41.917
    01:21:54.701 : en:01:21:54.701
6.0 из 10
голосов: 8
/10
/10
foster720p 16-11-2016, 01:52

jjkl | 16-11-2016, 05:04 | Статус: Оффлайн

спасибо

Dinozavr13 | 9-11-2016, 20:57 | Статус: Оффлайн

Ни фига он не чистый. Звук TS
Информация
Посетители, находящиеся в группе Гости, не могут оставлять комментарии к данной публикации.