Панель пользователя
Регистрация

Воспользуйтесь социальными сетями для входа на https://freerutor.com

vk odnoklassniki facebook mailru yandex google
Популярное
Счетчик
Голосуй за нас
VIP на сайте
Популярное
Товары интернет магазина
загрузка...

Полный расколбас (2016) BDRip 720р | iTunes | R.G.Resident

Полный расколбас (2016) BDRip 720р | iTunes | R.G.Resident
Участники торрент обмена
Сидов Пиров Скачали
229 22 19803
Характеристика
Размер Файлы
3.96 GB
Релиз группа
Поделиться раздачей
Мультфильмы
Наименование: Полный расколбас
Оригинальное наименование: Sausage Party
Категория: мультфильм, фэнтези, комедия, приключения
Произведено: США
Режиссер постановщик: Грег Тирнан , Конрад Вернон
В главных ролях: Алистэр Эбелл, Айрис Апатоу, Стефани Бирд, Майкл Сера, Йен Джеймс Корлетт, Майкл Дэйнджерфилд, Брайан Добсон, Майкл Добсон, Джеймс Франко, Билл Хейдер
Краткое описание: Первая анимационная комедия для взрослых о невероятных приключениях еды из супермаркета. Съедобным друзьям предстоит получить ответ на главный вопрос: есть ли жизнь за стенами супермаркета, и что же происходит с продуктами после того, как они попадают к людям домой?
  • Видео данные: MPEG-4 AVC, 4489 Кбит/с, 1280x690
    Аудио данные: Русский (AC3, 6 ch, 384 Кбит/с), английский (DTS, 6 ch, 1509 Кбит/с)
    Перевод: Дубляж - [iTunes]
    Продолжительность: 01:28:45
    Субтитры: английские (full), английские (SDH)
  • Полный расколбас (2016) BDRip 720р | iTunes | R.G.Resident Полный расколбас (2016) BDRip 720р | iTunes | R.G.Resident Полный расколбас (2016) BDRip 720р | iTunes | R.G.Resident
  • x264 [info]: frame I:1059 Avg QP:12.75 size:120994
    x264 [info]: frame P:37435 Avg QP:16.21 size: 39165
    x264 [info]: frame B:89186 Avg QP:18.11 size: 15628

    General
    Unique ID : 239686882964172218114194966117288270570 (0xB45203B76F7DD43BB32FB9F4FEFC5AEA)
    Complete name : D:downloadSausage.Party.2016.BDRip 720р by schultz R.G.Resident.mkv
    Format : Matroska
    Format version : Version 4 / Version 2
    File size : 3.96 GiB
    Duration : 1 h 28 min
    Overall bit rate : 6 385 kb/s
    Encoded date : UTC 2016-10-24 21:33:44
    Writing application : mkvmerge v8.9.0 ('Father Daughter') 64bit
    Writing library : libebml v1.3.3 + libmatroska v1.4.4

    Video
    ID : 1
    Format : AVC
    Format/Info : Advanced Video Codec
    Format profile : High@L4.1
    Format settings, CABAC : Yes
    Format settings, ReFrames : 12 frames
    Codec ID : V_MPEG4/ISO/AVC
    Duration : 1 h 28 min
    Bit rate : 4 489 kb/s
    Width : 1 280 pixels
    Height : 690 pixels
    Display aspect ratio : 1.85:1
    Frame rate mode : Constant
    Frame rate : 23.976 (23976/1000) FPS
    Color space : YUV
    Chroma subsampling : 4:2:0
    Bit depth : 8 bits
    Scan type : Progressive
    Bits/(Pixel*Frame) : 0.212
    Stream size : 2.78 GiB (70%)
    Writing library : x264 core 146 r2538 121396c
    Encoding settings : cabac=1 / ref=12 / deblock=1:-3:-3 / analyse=0x3:0x113 / me=umh / subme=11 / psy=1 / psy_rd=1.00:0.00 / mixed_ref=1 / me_range=48 / chroma_me=1 / trellis=2 / 8x8dct=1 / cqm=0 / deadzone=21,11 / fast_pskip=0 / chroma_qp_offset=-2 / threads=12 / lookahead_threads=3 / sliced_threads=0 / nr=0 / decimate=0 / interlaced=0 / bluray_compat=0 / constrained_intra=0 / bframes=11 / b_pyramid=2 / b_adapt=2 / b_bias=0 / direct=3 / weightb=1 / open_gop=0 / weightp=2 / keyint=240 / keyint_min=23 / scenecut=40 / intra_refresh=0 / rc_lookahead=40 / rc=2pass / mbtree=1 / bitrate=4489 / ratetol=1.0 / qcomp=0.60 / qpmin=0 / qpmax=69 / qpstep=4 / cplxblur=20.0 / qblur=0.5 / vbv_maxrate=50000 / vbv_bufsize=62500 / nal_hrd=none / filler=0 / ip_ratio=1.40 / aq=1:1.00
    Language : English
    Default : Yes
    Forced : No

    Audio #1
    ID : 2
    Format : AC-3
    Format/Info : Audio Coding 3
    Mode extension : CM (complete main)
    Format settings, Endianness : Big
    Codec ID : A_AC3
    Duration : 1 h 28 min
    Bit rate mode : Constant
    Bit rate : 384 kb/s
    Channel(s) : 6 channels
    Channel positions : Front: L C R, Side: L R, LFE
    Sampling rate : 48.0 kHz
    Frame rate : 31.250 FPS (1536 spf)
    Compression mode : Lossy
    Delay relative to video : 959 ms
    Stream size : 244 MiB (6%)
    Language : Russian
    Default : Yes
    Forced : No

    Audio #2
    ID : 3
    Format : DTS
    Format/Info : Digital Theater Systems
    Mode : 16
    Format settings, Endianness : Big
    Codec ID : A_DTS
    Duration : 1 h 28 min
    Bit rate mode : Constant
    Bit rate : 1 509 kb/s
    Channel(s) : 6 channels
    Channel positions : Front: L C R, Side: L R, LFE
    Sampling rate : 48.0 kHz
    Frame rate : 93.750 FPS (512 spf)
    Bit depth : 24 bits
    Compression mode : Lossy
    Stream size : 958 MiB (24%)
    Language : English
    Default : No
    Forced : No

    Text #1
    ID : 4
    Format : UTF-8
    Codec ID : S_TEXT/UTF8
    Codec ID/Info : UTF-8 Plain Text
    Duration : 1 h 26 min
    Bit rate : 85 b/s
    Count of elements : 1457
    Stream size : 53.8 KiB (0%)
    Title : full
    Language : English
    Default : No
    Forced : No

    Text #2
    ID : 5
    Format : UTF-8
    Codec ID : S_TEXT/UTF8
    Codec ID/Info : UTF-8 Plain Text
    Duration : 1 h 27 min
    Bit rate : 91 b/s
    Count of elements : 1703
    Stream size : 58.0 KiB (0%)
    Title : SDH
    Language : English
    Default : No
    Forced : No

    Menu
    00:00:00.000 : en:00:00:00.000
    00:04:24.264 : en:00:04:24.264
    00:10:19.118 : en:00:10:19.118
    00:15:27.844 : en:00:15:27.844
    00:19:32.171 : en:00:19:32.171
    00:24:53.701 : en:00:24:53.701
    00:29:32.938 : en:00:29:32.938
    00:35:44.142 : en:00:35:44.142
    00:41:55.263 : en:00:41:55.263
    00:48:18.521 : en:00:48:18.521
    00:54:45.908 : en:00:54:45.908
    00:59:54.508 : en:00:59:54.508
    01:03:47.073 : en:01:03:47.073
    01:08:01.286 : en:01:08:01.286
    01:11:55.811 : en:01:11:55.811
    01:16:03.809 : en:01:16:03.809
8.2 из 10
голосов: 5
/10
/10
schultz 25-10-2016, 01:22
Информация
Посетители, находящиеся в группе Гости, не могут оставлять комментарии к данной публикации.