Панель пользователя
Регистрация

Воспользуйтесь социальными сетями для входа на https://freerutor.com

vk odnoklassniki facebook mailru yandex google
Популярное
Счетчик
Голосуй за нас
VIP на сайте
Популярное
Товары интернет магазина
загрузка...

Абсолютная власть (2016) Blu-Ray Remux 1080p

Абсолютная власть (2016) Blu-Ray Remux 1080p
Участники торрент обмена
Сидов Пиров Скачали
2 0 278
Характеристика
Размер Файлы
26.25 GB
Релиз группа
Поделиться раздачей
Фильмы (720,1080,Blu-Ray)
Наименование: Абсолютная власть
Оригинальное наименование: Imperium
Категория: Триллер, драма, криминал
Произведено: США, Atomic Features
Режиссер постановщик: Даниэль Рагуссис
В главных ролях: Дэниэл Рэдклифф, Тони Коллетт, Трэйси Леттс, Сэм Трэммелл, Нестор Карбонелл, Крис Салливан, Сет Нумрик, Павел Жайда, Девин Друид, Берн Горман
Краткое описание: История о молодом агенте ФБР, которому приходится работать под прикрытием, чтобы остановить белых расистов, готовящих теракт.
  • Видео данные: MPEG-4 AVC, 28.9 Mбит/с, 1920x1080
    Аудио данные: Русский (DTS, 6 ch, 1510 Кбит/с), (AC3, 6 ch, 640 Кбит/с), английский (DTS-HD MA, 6 ch, 3535 Кбит/с)
    Перевод: Профессиональный многоголосый
    Продолжительность: 01:48:36
    Субтитры: Английские
  • Абсолютная власть (2016) Blu-Ray Remux 1080p Абсолютная власть (2016) Blu-Ray Remux 1080p Абсолютная власть (2016) Blu-Ray Remux 1080p
  • General
    Unique ID : 193767618691370362453998789826535750094 (0x91C6493155953B2D89F6C91F9C23F9CE)
    Complete name : H:\Video\Imperium.2016.MVO.BDREMUX.1080p.ExKinoRay.mkv
    Format : Matroska
    Format version : Version 4 / Version 2
    File size : 26.2 GiB
    Duration : 1 h 48 min
    Overall bit rate mode : Variable
    Overall bit rate : 34.6 Mb/s
    Movie name : build by ***селезень***
    Encoded date : UTC 2016-10-23 02:23:30
    Writing application : mkvmerge v8.3.0 ('Over the Horizon') 64bit
    Writing library : libebml v1.3.1 + libmatroska v1.4.2

    Video
    ID : 1
    Format : AVC
    Format/Info : Advanced Video Codec
    Format profile : High@L4.1
    Format settings, CABAC : Yes
    Format settings, ReFrames : 4 frames
    Codec ID : V_MPEG4/ISO/AVC
    Duration : 1 h 48 min
    Bit rate mode : Variable
    Bit rate : 28.9 Mb/s
    Maximum bit rate : 37.0 Mb/s
    Width : 1 920 pixels
    Height : 1 080 pixels
    Display aspect ratio : 16:9
    Frame rate mode : Constant
    Frame rate : 23.976 (24000/1001) FPS
    Color space : YUV
    Chroma subsampling : 4:2:0
    Bit depth : 8 bits
    Scan type : Progressive
    Bits/(Pixel*Frame) : 0.581
    Stream size : 21.9 GiB (84%)
    Title : build by ***селезень***
    Language : English
    Default : Yes
    Forced : No

    Audio #1
    ID : 2
    Format : DTS
    Format/Info : Digital Theater Systems
    Mode : 16
    Format settings, Endianness : Big
    Codec ID : A_DTS
    Duration : 1 h 48 min
    Bit rate mode : Constant
    Bit rate : 1 510 kb/s
    Channel(s) : 6 channels
    Channel positions : Front: L C R, Side: L R, LFE
    Sampling rate : 48.0 kHz
    Frame rate : 93.750 FPS (512 spf)
    Bit depth : 24 bits
    Compression mode : Lossy
    Stream size : 1.15 GiB (4%)
    Title : MVO-DTS ["Paradox" & "Omsbird records"]
    Language : Russian
    Default : Yes
    Forced : No

    Audio #2
    ID : 3
    Format : AC-3
    Format/Info : Audio Coding 3
    Mode extension : CM (complete main)
    Format settings, Endianness : Big
    Codec ID : A_AC3
    Duration : 1 h 48 min
    Bit rate mode : Constant
    Bit rate : 640 kb/s
    Channel(s) : 6 channels
    Channel positions : Front: L C R, Side: L R, LFE
    Sampling rate : 48.0 kHz
    Frame rate : 31.250 FPS (1536 spf)
    Compression mode : Lossy
    Stream size : 497 MiB (2%)
    Title : MVO-AC3 ["Paradox" & "Omsbird records"]
    Language : Russian
    Default : No
    Forced : No

    Audio #3
    ID : 4
    Format : DTS
    Format/Info : Digital Theater Systems
    Format profile : MA / Core
    Mode : 16
    Format settings, Endianness : Big
    Codec ID : A_DTS
    Duration : 1 h 48 min
    Bit rate mode : Variable / Constant
    Bit rate : 3 535 kb/s / 1 509 kb/s
    Channel(s) : 6 channels
    Channel positions : Front: L C R, Side: L R, LFE
    Sampling rate : 48.0 kHz
    Frame rate : 93.750 FPS (512 spf)
    Bit depth : 24 bits
    Compression mode : Lossless / Lossy
    Stream size : 2.68 GiB (10%)
    Title : Original
    Language : English
    Default : No
    Forced : No

    Text #1
    ID : 5
    Format : UTF-8
    Codec ID : S_TEXT/UTF8
    Codec ID/Info : UTF-8 Plain Text
    Duration : 1 h 39 min
    Bit rate : 85 b/s
    Count of elements : 1558
    Stream size : 62.5 KiB (0%)
    Title : Full
    Language : English
    Default : No
    Forced : No

    Text #2
    ID : 6
    Format : UTF-8
    Codec ID : S_TEXT/UTF8
    Codec ID/Info : UTF-8 Plain Text
    Duration : 1 h 39 min
    Bit rate : 88 b/s
    Count of elements : 1609
    Stream size : 64.8 KiB (0%)
    Title : SDH
    Language : English
    Default : No
    Forced : No

    Menu
    00:00:00.000 : en:(01)00:00:00:000
    00:07:07.260 : en:(02)00:07:07:260
    00:14:49.680 : en:(03)00:14:49:680
    00:21:11.645 : en:(04)00:21:11:645
    00:27:08.835 : en:(05)00:27:08:835
    00:33:24.002 : en:(06)00:33:24:002
    00:39:43.255 : en:(07)00:39:43:255
    00:46:01.008 : en:(08)00:46:01:008
    00:51:49.564 : en:(09)00:51:49:564
    00:57:56.639 : en:(10)00:57:56:639
    01:05:00.271 : en:(11)01:05:00:271
    01:11:59.898 : en:(12)01:11:59:898
    01:19:28.221 : en:(13)01:19:28:221
    01:26:43.573 : en:(14)01:26:43:573
    01:30:29.799 : en:(15)01:30:29:799
    01:38:49.590 : en:(16)01:38:49:590
    01:48:36.301 : en:(17)01:48:36:301
5.5 из 10
голосов: 2
/10
/10
616759 23-10-2016, 07:53
Информация
Посетители, находящиеся в группе Гости, не могут оставлять комментарии к данной публикации.