Панель пользователя
Регистрация

Воспользуйтесь социальными сетями для входа на https://freerutor.com

vk odnoklassniki facebook mailru yandex google
Популярное
Счетчик
Голосуй за нас
VIP на сайте
Популярное
Товары интернет магазина
загрузка...

Безбашенный Ник (2016) HDRip-AVC

Безбашенный Ник (2016) HDRip-AVC
Участники торрент обмена
Сидов Пиров Скачали
46 1 2820
Характеристика
Размер Файлы
2.51 GB
Релиз группа
Поделиться раздачей
Фильмы (AVC)
Наименование: Безбашенный Ник
Оригинальное наименование: Tschiller: Off Duty
Категория: Боевик, триллер, комедия
Произведено: Германия /
Режиссер постановщик: Кристиан Альварт
В главных ролях: Тиль Швайгер, Ральф Мёллер, Эрол Афсин, Беррак Тюзюнатач, Роберт Маазер, Фатих Угурлу, Луна Швайгер, Озгюр Эмре Йылдирим, Фахри Огюн Ярдим, Джо Тодтлинг
Краткое описание: Старший комиссар криминальной полиции Ник Чиллер отстранен от несения службы. Во время вынужденного отпуска он пытается наладить отношения с дочерью Ленни, которая никак не может оправиться после убийства матери. В один прекрасный день она решает отомстить убийце матери и бесследно исчезает, не сказав никому ни слова. Напарнику Чиллера удается выяснить, куда сбежала девушка, отследив местонахождение ее мобильного телефона. От этой новости у бесстрашного полицейского стынет кровь, так как в Стамбуле находится его злейший враг и убийца жены Фират Астан, которому удалось совершить побег из тюрьмы. Вместе со своим напарником он отправляется на поиски дочери. В Стамбуле они узнают, что опоздали. Девушка была схвачена злодеем по имени Сулейман Шекер и продана в рабство в Москву.
  • Видео данные: MPEG-4 AVC, 1922 Кбит/с, 1024x426
    Аудио данные: Русский (АС3, 2 ch, 192 Кбит/с), немецкий (АС3, 6 ch, 448 Кбит/с)
    Перевод: Профессиональный многоголосый [ViruseProject]
    Субтитры: Немецкие
    Продолжительность: 02:20:15
  • Безбашенный Ник (2016) HDRip-AVC Безбашенный Ник (2016) HDRip-AVC Безбашенный Ник (2016) HDRip-AVC
  • General
    Unique ID : 244133289515601512578578163385495619107 (0xB7AA5C7C3094E87EA437AB304F628623)
    Complete name : E:\Tschiller.2016.MVO.BDRip.AVC.ExKinoRay.mkv
    Format : Matroska
    Format version : Version 2
    File size : 2.51 GiB
    Duration : 2 h 20 min
    Overall bit rate : 2 562 kb/s
    Movie name : Tschiller: Off Duty (2016) from ExKinoRay
    Encoded date : UTC 2016-10-22 04:29:00
    Writing application : mkvmerge v7.6.0 ('Garden of Dreams') 32bit built on Feb 11 2015 00:18:47
    Writing library : libebml v1.3.1 + libmatroska v1.4.2

    Video
    ID : 1
    Format : AVC
    Format/Info : Advanced Video Codec
    Format profile : High@L4.1
    Format settings, CABAC : Yes
    Format settings, ReFrames : 12 frames
    Codec ID : V_MPEG4/ISO/AVC
    Duration : 2 h 20 min
    Bit rate : 1 922 kb/s
    Width : 1 024 pixels
    Height : 426 pixels
    Display aspect ratio : 2.40:1
    Frame rate mode : Constant
    Frame rate : 23.976 (23976/1000) FPS
    Color space : YUV
    Chroma subsampling : 4:2:0
    Bit depth : 8 bits
    Scan type : Progressive
    Bits/(Pixel*Frame) : 0.184
    Stream size : 1.83 GiB (73%)
    Title : Enigma
    Writing library : x264 core 144 r2525 40bb568
    Encoding settings : cabac=1 / ref=12 / deblock=1:-2:-2 / analyse=0x3:0x113 / me=umh / subme=10 / psy=1 / psy_rd=1.03:0.11 / mixed_ref=1 / me_range=32 / chroma_me=1 / trellis=2 / 8x8dct=1 / cqm=0 / deadzone=21,11 / fast_pskip=0 / chroma_qp_offset=-3 / threads=12 / lookahead_threads=2 / sliced_threads=0 / nr=0 / decimate=0 / interlaced=0 / bluray_compat=0 / constrained_intra=0 / bframes=9 / b_pyramid=2 / b_adapt=2 / b_bias=0 / direct=3 / weightb=1 / open_gop=0 / weightp=2 / keyint=240 / keyint_min=23 / scenecut=40 / intra_refresh=0 / rc_lookahead=40 / rc=2pass / mbtree=0 / bitrate=1922 / ratetol=1.0 / qcomp=0.65 / qpmin=0 / qpmax=51 / qpstep=4 / cplxblur=20.0 / qblur=0.5 / vbv_maxrate=50000 / vbv_bufsize=62500 / nal_hrd=none / filler=0 / ip_ratio=1.40 / pb_ratio=1.30 / aq=1:0.80
    Language : English
    Default : Yes
    Forced : No
    Color range : Limited
    Color primaries : BT.709
    Transfer characteristics : BT.709
    Matrix coefficients : BT.709

    Audio #1
    ID : 2
    Format : AC-3
    Format/Info : Audio Coding 3
    Mode extension : CM (complete main)
    Format settings, Endianness : Big
    Codec ID : A_AC3
    Duration : 2 h 20 min
    Bit rate mode : Constant
    Bit rate : 192 kb/s
    Channel(s) : 2 channels
    Channel positions : Front: L R
    Sampling rate : 48.0 kHz
    Frame rate : 31.250 FPS (1536 spf)
    Compression mode : Lossy
    Stream size : 193 MiB (7%)
    Title : MVO [ViruseProject]
    Language : Russian
    Default : Yes
    Forced : No

    Audio #2
    ID : 3
    Format : AC-3
    Format/Info : Audio Coding 3
    Mode extension : CM (complete main)
    Format settings, Endianness : Big
    Codec ID : A_AC3
    Duration : 2 h 20 min
    Bit rate mode : Constant
    Bit rate : 448 kb/s
    Channel(s) : 6 channels
    Channel positions : Front: L C R, Side: L R, LFE
    Sampling rate : 48.0 kHz
    Frame rate : 31.250 FPS (1536 spf)
    Compression mode : Lossy
    Stream size : 449 MiB (17%)
    Language : German
    Default : No
    Forced : No

    Text
    ID : 4
    Format : UTF-8
    Codec ID : S_TEXT/UTF8
    Codec ID/Info : UTF-8 Plain Text
    Language : German
    Default : No
    Forced : No

    Menu
    00:00:00.000 : en:00:00:00.000
    00:13:13.459 : en:00:13:13.459
    00:25:20.811 : en:00:25:20.811
    00:37:41.468 : en:00:37:41.468
    00:51:15.572 : en:00:51:15.572
    00:59:29.941 : en:00:59:29.941
    01:11:41.547 : en:01:11:41.547
    01:23:59.743 : en:01:23:59.743
    01:38:16.307 : en:01:38:16.307
    01:49:34.401 : en:01:49:34.401
    02:00:01.528 : en:02:00:01.528
    02:15:49.183 : en:02:15:49.183
10.0 из 10
голосов: 3
/10
/10
grab777 23-10-2016, 07:25

sergy2000 | 23-10-2016, 07:56 | Статус: Оффлайн

ха-ха-ха "и продана в рабство в Москву". Дебилы, б**ть.
Информация
Посетители, находящиеся в группе Гости, не могут оставлять комментарии к данной публикации.