Панель пользователя
Регистрация

Воспользуйтесь социальными сетями для входа на https://freerutor.com

vk odnoklassniki facebook mailru yandex google
Популярное
Счетчик
Голосуй за нас
VIP на сайте
Популярное
Товары интернет магазина
загрузка...

Стартрек: Бесконечность (2016) BDRip 1080р | iTunes | R.G.Resident

Стартрек: Бесконечность (2016) BDRip 1080р | iTunes | R.G.Resident
Участники торрент обмена
Сидов Пиров Скачали
9 2 625
Характеристика
Размер Файлы
9.86 GB
Релиз группа
Поделиться раздачей
Фильмы (720,1080,Blu-Ray)
Наименование: Стартрек: Бесконечность
Оригинальное наименование: Star Trek Beyond
Категория: фантастика, боевик, триллер, приключения
Произведено: США
Режиссер постановщик: Джастин Лин
В главных ролях: Крис Пайн, Закари Куинто, Саймон Пегг, Карл Урбан, Зои Салдана, Джон Чо, Антон Ельчин, Идрис Эльба, София Бутелла, Джо Таслим
Краткое описание: Бесстрашная команда крейсера Звездного Флота «Энтерпрайз» исследует неизведанные глубины космоса. Во время этого полного опасностей путешествия герои сталкиваются с таинственной силой, ставящей под угрозу не только их миссию и стабильность Федерации, но и весь миропорядок.
  • Видео данные: MPEG-4 AVC, 10.5 Mbps, 1920x804
    Аудио данные: Русский (AC3, 6 ch, 384 Кбит/с), английский (AC3, 6 ch, 640 Кбит/с)
    Перевод: Дубляж - [iTunes]
    Продолжительность: 02:02:22
    Субтитры: русские (Forced [iTunes]), (Full [iTunes]), английские (Forced), (Full), (SDH)
  • Стартрек: Бесконечность (2016) BDRip 1080р | iTunes | R.G.Resident Стартрек: Бесконечность (2016) BDRip 1080р | iTunes | R.G.Resident Стартрек: Бесконечность (2016) BDRip 1080р | iTunes | R.G.Resident
  • x264 [info]: frame I:1112 Avg QP:14.96
    x264 [info]: frame P:52198 Avg QP:17.91
    x264 [info]: frame B:122726 Avg QP:18.68

    Общее
    Уникальный идентификатор : 253504018693044131254940629638485852022 (0xBEB7191A9D1E6C33A1CD82DD603F3F76)
    Полное имя : D:\download\Star.Trek.Beyond.2016.BDRip 1080р by schultz R.G.Resident.mkv
    Формат : Matroska
    Версия формата : Version 4 / Version 2
    Размер файла : 9,86 Гбайт
    Продолжительность : 2 ч. 2 м.
    Общий поток : 11,5 Мбит/сек
    Дата кодирования : UTC 2016-10-22 13:11:31
    Программа кодирования : mkvmerge v8.9.0 ('Father Daughter') 64bit
    Библиотека кодирования : libebml v1.3.3 + libmatroska v1.4.4

    Видео
    Идентификатор : 1
    Формат : AVC
    Формат/Информация : Advanced Video Codec
    Профиль формата : High@L4.1
    Параметр CABAC формата : Да
    Параметр ReFrames формата : 5 кадров
    Идентификатор кодека : V_MPEG4/ISO/AVC
    Продолжительность : 2 ч. 2 м.
    Битрейт : 10,5 Мбит/сек
    Ширина : 1920 пикселей
    Высота : 804 пикселя
    Соотношение сторон : 2,40:1
    Режим частоты кадров : Постоянный
    Частота кадров : 23,976 (23976/1000) кадра/сек
    Цветовое пространство : YUV
    Субдискретизация насыщенности : 4:2:0
    Битовая глубина : 8 бит
    Тип развёртки : Прогрессивная
    Бит/(Пиксели*Кадры) : 0.284
    Размер потока : 8,98 Гбайт (91%)
    Библиотека кодирования : x264 core 146 r2538 121396c
    Настройки программы : cabac=1 / ref=5 / deblock=1:-3:-3 / analyse=0x3:0x113 / me=umh / subme=11 / psy=1 / psy_rd=1.00:0.00 / mixed_ref=1 / me_range=48 / chroma_me=1 / trellis=2 / 8x8dct=1 / cqm=0 / deadzone=21,11 / fast_pskip=0 / chroma_qp_offset=-2 / threads=12 / lookahead_threads=2 / sliced_threads=0 / nr=0 / decimate=0 / interlaced=0 / bluray_compat=0 / constrained_intra=0 / bframes=9 / b_pyramid=2 / b_adapt=2 / b_bias=0 / direct=3 / weightb=1 / open_gop=0 / weightp=2 / keyint=240 / keyint_min=23 / scenecut=40 / intra_refresh=0 / rc_lookahead=40 / rc=2pass / mbtree=1 / bitrate=10514 / ratetol=1.0 / qcomp=0.60 / qpmin=0 / qpmax=69 / qpstep=4 / cplxblur=20.0 / qblur=0.5 / vbv_maxrate=50000 / vbv_bufsize=62500 / nal_hrd=none / filler=0 / ip_ratio=1.40 / aq=1:1.00
    Язык : English
    Default : Да
    Forced : Нет

    Аудио #1
    Идентификатор : 2
    Формат : AC-3
    Формат/Информация : Audio Coding 3
    Расширение режима : CM (complete main)
    Параметр Endianness формата : Big
    Идентификатор кодека : A_AC3
    Продолжительность : 2 ч. 2 м.
    Вид битрейта : Постоянный
    Битрейт : 384 Кбит/сек
    Каналы : 6 каналов
    Расположение каналов : Front: L C R, Side: L R, LFE
    Частота : 48,0 КГц
    Частота кадров : 31,250 кадров/сек (1536 spf)
    Метод сжатия : С потерями
    Размер потока : 336 Мбайт (3%)
    Заголовок : Dub [iTunes]
    Язык : Russian
    Default : Да
    Forced : Нет

    Аудио #2
    Идентификатор : 3
    Формат : AC-3
    Формат/Информация : Audio Coding 3
    Расширение режима : CM (complete main)
    Параметр Endianness формата : Big
    Идентификатор кодека : A_AC3
    Продолжительность : 2 ч. 2 м.
    Вид битрейта : Постоянный
    Битрейт : 640 Кбит/сек
    Каналы : 6 каналов
    Расположение каналов : Front: L C R, Side: L R, LFE
    Частота : 48,0 КГц
    Частота кадров : 31,250 кадров/сек (1536 spf)
    Метод сжатия : С потерями
    Размер потока : 560 Мбайт (6%)
    Заголовок : Original
    Язык : English
    Default : Нет
    Forced : Нет

    Текст #1
    Идентификатор : 4
    Формат : UTF-8
    Идентификатор кодека : S_TEXT/UTF8
    Идентификатор кодека/Информация : UTF-8 Plain Text
    Продолжительность : 1 ч. 49 м.
    Битрейт : 1 бит/сек
    Count of elements : 23
    Размер потока : 1,10 Кбайт (0%)
    Заголовок : Forced [iTunes]
    Язык : Russian
    Default : Да
    Forced : Нет

    Текст #2
    Идентификатор : 5
    Формат : UTF-8
    Идентификатор кодека : S_TEXT/UTF8
    Идентификатор кодека/Информация : UTF-8 Plain Text
    Продолжительность : 1 ч. 54 м.
    Битрейт : 78 бит/сек
    Count of elements : 1178
    Размер потока : 66,0 Кбайт (0%)
    Заголовок : Full [iTunes]
    Язык : Russian
    Default : Нет
    Forced : Нет

    Текст #3
    Идентификатор : 6
    Формат : UTF-8
    Идентификатор кодека : S_TEXT/UTF8
    Идентификатор кодека/Информация : UTF-8 Plain Text
    Продолжительность : 59 м.
    Битрейт : 0 бит/сек
    Count of elements : 15
    Размер потока : 365 байт (0%)
    Заголовок : Forced
    Язык : English
    Default : Нет
    Forced : Нет

    Текст #4
    Идентификатор : 7
    Формат : UTF-8
    Идентификатор кодека : S_TEXT/UTF8
    Идентификатор кодека/Информация : UTF-8 Plain Text
    Продолжительность : 1 ч. 51 м.
    Битрейт : 53 бит/сек
    Count of elements : 1300
    Размер потока : 43,7 Кбайт (0%)
    Заголовок : Full
    Язык : English
    Default : Нет
    Forced : Нет

    Текст #5
    Идентификатор : 8
    Формат : UTF-8
    Идентификатор кодека : S_TEXT/UTF8
    Идентификатор кодека/Информация : UTF-8 Plain Text
    Продолжительность : 1 ч. 51 м.
    Битрейт : 59 бит/сек
    Count of elements : 1527
    Размер потока : 48,7 Кбайт (0%)
    Заголовок : SDH
    Язык : English
    Default : Нет
    Forced : Нет

    Меню
    00:00:00.000 : en:Chapter 1
    00:08:25.000 : en:Chapter 2
    00:16:10.000 : en:Chapter 3
    00:32:37.000 : en:Chapter 4
    00:42:15.000 : en:Chapter 5
    00:52:21.000 : en:Chapter 6
    00:59:49.000 : en:Chapter 7
    01:12:04.000 : en:Chapter 8
    01:22:33.000 : en:Chapter 9
    01:33:00.000 : en:Chapter 10
    01:40:32.000 : en:Chapter 11
    01:47:38.000 : en:Chapter 12
    01:52:31.000 : en:Chapter 13
    01:55:40.000 : en:Chapter 14
9.2 из 10
голосов: 5
/10
/10
schultz 22-10-2016, 17:21
Информация
Посетители, находящиеся в группе Гости, не могут оставлять комментарии к данной публикации.