Панель пользователя
Регистрация

Воспользуйтесь социальными сетями для входа на https://freerutor.com

vk odnoklassniki facebook mailru yandex google
Популярное
Счетчик
Голосуй за нас
VIP на сайте
Популярное
Товары интернет магазина
загрузка...

Стартрек: Бесконечность (2016) BDRip 720р | iTunes | R.G.Resident

Стартрек: Бесконечность (2016) BDRip 720р | iTunes | R.G.Resident
Участники торрент обмена
Сидов Пиров Скачали
14 0 823
Характеристика
Размер Файлы
4.76 GB
Релиз группа
Поделиться раздачей
Фильмы (720,1080,Blu-Ray)
Наименование: Стартрек: Бесконечность
Оригинальное наименование: Star Trek Beyond
Категория: фантастика, боевик, триллер, приключения
Произведено: США
Режиссер постановщик: Джастин Лин
В главных ролях: Крис Пайн, Закари Куинто, Саймон Пегг, Карл Урбан, Зои Салдана, Джон Чо, Антон Ельчин, Идрис Эльба, София Бутелла, Джо Таслим
Краткое описание: Бесстрашная команда крейсера Звездного Флота «Энтерпрайз» исследует неизведанные глубины космоса. Во время этого полного опасностей путешествия герои сталкиваются с таинственной силой, ставящей под угрозу не только их миссию и стабильность Федерации, но и весь миропорядок.
  • Видео данные: MPEG-4 AVC, 4542 Кбит/с, 1280x536
    Аудио данные: Русский (AC3, 6 ch, 384 Кбит/с), английский (AC3, 6 ch, 640 Кбит/с)
    Перевод: Дубляж - [iTunes]
    Продолжительность: 02:02:22
    Субтитры: русские (Forced [iTunes]), (Full [iTunes]), английские (Forced), (Full), (SDH)
  • Стартрек: Бесконечность (2016) BDRip 720р | iTunes | R.G.Resident Стартрек: Бесконечность (2016) BDRip 720р | iTunes | R.G.Resident Стартрек: Бесконечность (2016) BDRip 720р | iTunes | R.G.Resident
  • x264 [info]: frame I:1231 Avg QP:13.26 size:126956
    x264 [info]: frame P:47819 Avg QP:16.90 size: 41188
    x264 [info]: frame B:126986 Avg QP:18.34 size: 16069

    General
    Unique ID : 180995498515719922229894339238216470715 (0x882A770CCCF5D10C8133A8E16A4A10BB)
    Complete name : D:\download\Star.Trek.Beyond.2016.BDRip 720р by schultz R.G.Resident.mkv
    Format : Matroska
    Format version : Version 4 / Version 2
    File size : 4.76 GiB
    Duration : 2 h 2 min
    Overall bit rate : 5 566 kb/s
    Encoded date : UTC 2016-10-21 19:40:10
    Writing application : mkvmerge v8.9.0 ('Father Daughter') 64bit
    Writing library : libebml v1.3.3 + libmatroska v1.4.4

    Video
    ID : 1
    Format : AVC
    Format/Info : Advanced Video Codec
    Format profile : High@L4.1
    Format settings, CABAC : Yes
    Format settings, ReFrames : 12 frames
    Codec ID : V_MPEG4/ISO/AVC
    Duration : 2 h 2 min
    Bit rate : 4 542 kb/s
    Width : 1 280 pixels
    Height : 536 pixels
    Display aspect ratio : 2.40:1
    Frame rate mode : Constant
    Frame rate : 23.976 (23976/1000) FPS
    Color space : YUV
    Chroma subsampling : 4:2:0
    Bit depth : 8 bits
    Scan type : Progressive
    Bits/(Pixel*Frame) : 0.276
    Stream size : 3.88 GiB (82%)
    Writing library : x264 core 146 r2538 121396c
    Encoding settings : cabac=1 / ref=12 / deblock=1:-3:-3 / analyse=0x3:0x113 / me=umh / subme=11 / psy=1 / psy_rd=1.00:0.00 / mixed_ref=1 / me_range=48 / chroma_me=1 / trellis=2 / 8x8dct=1 / cqm=0 / deadzone=21,11 / fast_pskip=0 / chroma_qp_offset=-2 / threads=12 / lookahead_threads=3 / sliced_threads=0 / nr=0 / decimate=0 / interlaced=0 / bluray_compat=0 / constrained_intra=0 / bframes=11 / b_pyramid=2 / b_adapt=2 / b_bias=0 / direct=3 / weightb=1 / open_gop=0 / weightp=2 / keyint=240 / keyint_min=23 / scenecut=40 / intra_refresh=0 / rc_lookahead=40 / rc=2pass / mbtree=1 / bitrate=4542 / ratetol=1.0 / qcomp=0.60 / qpmin=0 / qpmax=69 / qpstep=4 / cplxblur=20.0 / qblur=0.5 / vbv_maxrate=50000 / vbv_bufsize=62500 / nal_hrd=none / filler=0 / ip_ratio=1.40 / aq=1:1.00
    Language : English
    Default : Yes
    Forced : No

    Audio #1
    ID : 2
    Format : AC-3
    Format/Info : Audio Coding 3
    Mode extension : CM (complete main)
    Format settings, Endianness : Big
    Codec ID : A_AC3
    Duration : 2 h 2 min
    Bit rate mode : Constant
    Bit rate : 384 kb/s
    Channel(s) : 6 channels
    Channel positions : Front: L C R, Side: L R, LFE
    Sampling rate : 48.0 kHz
    Frame rate : 31.250 FPS (1536 spf)
    Compression mode : Lossy
    Stream size : 336 MiB (7%)
    Title : Dub [iTunes]
    Language : Russian
    Default : Yes
    Forced : No

    Audio #2
    ID : 3
    Format : AC-3
    Format/Info : Audio Coding 3
    Mode extension : CM (complete main)
    Format settings, Endianness : Big
    Codec ID : A_AC3
    Duration : 2 h 2 min
    Bit rate mode : Constant
    Bit rate : 640 kb/s
    Channel(s) : 6 channels
    Channel positions : Front: L C R, Side: L R, LFE
    Sampling rate : 48.0 kHz
    Frame rate : 31.250 FPS (1536 spf)
    Compression mode : Lossy
    Stream size : 560 MiB (11%)
    Title : Original
    Language : English
    Default : No
    Forced : No

    Text #1
    ID : 4
    Format : UTF-8
    Codec ID : S_TEXT/UTF8
    Codec ID/Info : UTF-8 Plain Text
    Duration : 1 h 49 min
    Bit rate : 1 b/s
    Count of elements : 23
    Stream size : 1.10 KiB (0%)
    Title : Forced [iTunes]
    Language : Russian
    Default : Yes
    Forced : No

    Text #2
    ID : 5
    Format : UTF-8
    Codec ID : S_TEXT/UTF8
    Codec ID/Info : UTF-8 Plain Text
    Duration : 1 h 54 min
    Bit rate : 78 b/s
    Count of elements : 1178
    Stream size : 66.0 KiB (0%)
    Title : Full [iTunes]
    Language : Russian
    Default : No
    Forced : No

    Text #3
    ID : 6
    Format : UTF-8
    Codec ID : S_TEXT/UTF8
    Codec ID/Info : UTF-8 Plain Text
    Duration : 59 min
    Bit rate : 0 b/s
    Count of elements : 15
    Stream size : 365 Bytes (0%)
    Title : Forced
    Language : English
    Default : No
    Forced : No

    Text #4
    ID : 7
    Format : UTF-8
    Codec ID : S_TEXT/UTF8
    Codec ID/Info : UTF-8 Plain Text
    Duration : 1 h 51 min
    Bit rate : 53 b/s
    Count of elements : 1300
    Stream size : 43.7 KiB (0%)
    Title : Full
    Language : English
    Default : No
    Forced : No

    Text #5
    ID : 8
    Format : UTF-8
    Codec ID : S_TEXT/UTF8
    Codec ID/Info : UTF-8 Plain Text
    Duration : 1 h 51 min
    Bit rate : 59 b/s
    Count of elements : 1527
    Stream size : 48.7 KiB (0%)
    Title : SDH
    Language : English
    Default : No
    Forced : No

    Menu
    00:00:00.000 : en:Chapter 1
    00:08:25.000 : en:Chapter 2
    00:16:10.000 : en:Chapter 3
    00:32:37.000 : en:Chapter 4
    00:42:15.000 : en:Chapter 5
    00:52:21.000 : en:Chapter 6
    00:59:49.000 : en:Chapter 7
    01:12:04.000 : en:Chapter 8
    01:22:33.000 : en:Chapter 9
    01:33:00.000 : en:Chapter 10
    01:40:32.000 : en:Chapter 11
    01:47:38.000 : en:Chapter 12
    01:52:31.000 : en:Chapter 13
    01:55:40.000 : en:Chapter 14
10.0 из 10
голосов: 5
/10
/10
schultz 21-10-2016, 23:27

Vereshagin1972 | 22-10-2016, 09:58 | Статус: Оффлайн

Отличный фильмец
Информация
Посетители, находящиеся в группе Гости, не могут оставлять комментарии к данной публикации.