Панель пользователя
Регистрация

Воспользуйтесь социальными сетями для входа на https://freerutor.com

vk odnoklassniki facebook mailru yandex google
Популярное
Счетчик
Голосуй за нас
VIP на сайте
Популярное
Товары интернет магазина
загрузка...

Говорящие с ветром (2002) BDRip 1080р | Лицензия, P, A | R.G.Resident

Говорящие с ветром (2002) BDRip 1080р | Лицензия, P, A | R.G.Resident
Участники торрент обмена
Сидов Пиров Скачали
2 0 30
Характеристика
Размер Файлы
20.00 GB
Релиз группа
Поделиться раздачей
Фильмы (720,1080,Blu-Ray)
Наименование: Говорящие с ветром
Оригинальное наименование: Windtalkers
Категория: боевик, драма, военный
Произведено: США
Режиссер постановщик: Джон Ву
В главных ролях: Николас Кэйдж, Адам Бич, Питер Стормар, Ной Эммерих, Марк Руффало, Брайан Ван Холт, Мартин Хендерсон, Роджер Уилли, Фрэнсис О`Коннор, Кристиан Слэйтер, Джейсон Айзекс, Билли Мортс, Камерон Тор, Кевин Куни, Холмс Осборн, Кейт Кэмпбелл, Клэйтон Дж. Барбер, Скотт Эткинсон, Джереми Дэвидсон, Брайан Мэйнард, Альберт Смит
Краткое описание: Вторая мировая война. Америка ведет ожесточенные бои с японцами в Тихом океане. В течении этой войны японцы искусно расшифровывают секретные американские радиограммы. Это обстоятельство заставило американское правительство завербовать несколько сотен индейцев Навахо, чтобы использовать их родной язык в качестве кода для секретных сообщений.
  • Видео данные: MPEG-4 AVC, 17870 Кбит/с, 1920x796
    Аудио данные: Русский (AC3, 6 ch, 384 Кбит/с), Русский (DTS, 6 ch, 768 Кбит/с), английский (DTS, 6 ch, 768 Кбит/с)
    Перевод: Перевод #1: Профессиональный (дублированный) R5
    Перевод #2: Профессиональный (многоголосый закадровый) Карусель
    Перевод #3: Профессиональный (многоголосый закадровый) CP Digital
    Перевод #4: Авторский (одноголосый закадровый) Ю.Живов
    Перевод #5: английский (оригинал)
    Продолжительность: 02:14:21
    Субтитры: русские (FULL), английские (FULL)
  • Говорящие с ветром (2002) BDRip 1080р | Лицензия, P, A | R.G.Resident Говорящие с ветром (2002) BDRip 1080р | Лицензия, P, A | R.G.Resident Говорящие с ветром (2002) BDRip 1080р | Лицензия, P, A | R.G.Resident
  • x264 [info]: frame I:1204 Avg QP:15.78 size:213873
    x264 [info]: frame P:47282 Avg QP:18.56 size:130545
    x264 [info]: frame B:144784 Avg QP:19.93 size: 79919

    General
    Unique ID : 182375197101714064199500471918454670881 (0x89342F713552FF40B2102CC180488621)
    Complete name : D:\download\Windtalkers.2002.BDRip 1080р by schultz R.G.Resident.mkv
    Format : Matroska
    Format version : Version 4 / Version 2
    File size : 20.0 GiB
    Duration : 2 h 14 min
    Overall bit rate : 21.3 Mb/s
    Encoded date : UTC 2016-10-20 13:27:01
    Writing application : mkvmerge v8.9.0 ('Father Daughter') 64bit
    Writing library : libebml v1.3.3 + libmatroska v1.4.4

    Video
    ID : 1
    Format : AVC
    Format/Info : Advanced Video Codec
    Format profile : High@L4.1
    Format settings, CABAC : Yes
    Format settings, ReFrames : 5 frames
    Codec ID : V_MPEG4/ISO/AVC
    Duration : 2 h 14 min
    Bit rate : 17.9 Mb/s
    Width : 1 920 pixels
    Height : 796 pixels
    Display aspect ratio : 2.40:1
    Frame rate mode : Constant
    Frame rate : 23.976 (23976/1000) FPS
    Color space : YUV
    Chroma subsampling : 4:2:0
    Bit depth : 8 bits
    Scan type : Progressive
    Bits/(Pixel*Frame) : 0.488
    Stream size : 16.8 GiB (84%)
    Writing library : x264 core 146 r2538 121396c
    Encoding settings : cabac=1 / ref=5 / deblock=1:-3:-3 / analyse=0x3:0x113 / me=umh / subme=11 / psy=1 / psy_rd=1.00:0.00 / mixed_ref=1 / me_range=48 / chroma_me=1 / trellis=2 / 8x8dct=1 / cqm=0 / deadzone=21,11 / fast_pskip=0 / chroma_qp_offset=-2 / threads=12 / lookahead_threads=2 / sliced_threads=0 / nr=0 / decimate=0 / interlaced=0 / bluray_compat=0 / constrained_intra=0 / bframes=9 / b_pyramid=2 / b_adapt=2 / b_bias=0 / direct=3 / weightb=1 / open_gop=0 / weightp=2 / keyint=240 / keyint_min=23 / scenecut=40 / intra_refresh=0 / rc_lookahead=40 / rc=2pass / mbtree=1 / bitrate=17870 / ratetol=1.0 / qcomp=0.60 / qpmin=0 / qpmax=69 / qpstep=4 / cplxblur=20.0 / qblur=0.5 / vbv_maxrate=50000 / vbv_bufsize=62500 / nal_hrd=none / filler=0 / ip_ratio=1.40 / aq=1:1.00
    Language : English
    Default : Yes
    Forced : No

    Audio #1
    ID : 2
    Format : AC-3
    Format/Info : Audio Coding 3
    Mode extension : CM (complete main)
    Format settings, Endianness : Big
    Codec ID : A_AC3
    Duration : 2 h 14 min
    Bit rate mode : Constant
    Bit rate : 384 kb/s
    Channel(s) : 6 channels
    Channel positions : Front: L C R, Side: L R, LFE
    Sampling rate : 48.0 kHz
    Frame rate : 31.250 FPS (1536 spf)
    Compression mode : Lossy
    Stream size : 369 MiB (2%)
    Title : Дубляж - R5
    Language : Russian
    Default : Yes
    Forced : No

    Audio #2
    ID : 3
    Format : DTS
    Format/Info : Digital Theater Systems
    Mode : 16
    Format settings, Endianness : Big
    Codec ID : A_DTS
    Duration : 2 h 14 min
    Bit rate mode : Constant
    Bit rate : 768 kb/s
    Channel(s) : 6 channels
    Channel positions : Front: L C R, Side: L R, LFE
    Sampling rate : 48.0 kHz
    Frame rate : 93.750 FPS (512 spf)
    Bit depth : 24 bits
    Compression mode : Lossy
    Stream size : 738 MiB (4%)
    Title : Карусель
    Language : Russian
    Default : No
    Forced : No

    Audio #3
    ID : 4
    Format : DTS
    Format/Info : Digital Theater Systems
    Mode : 16
    Format settings, Endianness : Big
    Codec ID : A_DTS
    Duration : 2 h 14 min
    Bit rate mode : Constant
    Bit rate : 755 kb/s
    Channel(s) : 6 channels
    Channel positions : Front: L C R, Side: L R, LFE
    Sampling rate : 48.0 kHz
    Frame rate : 93.750 FPS (512 spf)
    Bit depth : 24 bits
    Compression mode : Lossy
    Stream size : 725 MiB (4%)
    Title : CP Digital
    Language : Russian
    Default : No
    Forced : No

    Audio #4
    ID : 5
    Format : DTS
    Format/Info : Digital Theater Systems
    Mode : 16
    Format settings, Endianness : Big
    Codec ID : A_DTS
    Duration : 2 h 14 min
    Bit rate mode : Constant
    Bit rate : 768 kb/s
    Channel(s) : 6 channels
    Channel positions : Front: L C R, Side: L R, LFE
    Sampling rate : 48.0 kHz
    Frame rate : 93.750 FPS (512 spf)
    Bit depth : 24 bits
    Compression mode : Lossy
    Stream size : 738 MiB (4%)
    Title : Ю.Живов
    Language : Russian
    Default : No
    Forced : No

    Audio #5
    ID : 6
    Format : DTS
    Format/Info : Digital Theater Systems
    Mode : 16
    Format settings, Endianness : Big
    Codec ID : A_DTS
    Duration : 2 h 14 min
    Bit rate mode : Constant
    Bit rate : 768 kb/s
    Channel(s) : 6 channels
    Channel positions : Front: L C R, Side: L R, LFE
    Sampling rate : 48.0 kHz
    Frame rate : 93.750 FPS (512 spf)
    Bit depth : 24 bits
    Compression mode : Lossy
    Stream size : 738 MiB (4%)
    Title : Original
    Language : English
    Default : No
    Forced : No

    Text #1
    ID : 7
    Format : UTF-8
    Codec ID : S_TEXT/UTF8
    Codec ID/Info : UTF-8 Plain Text
    Duration : 2 h 5 min
    Bit rate : 49 b/s
    Count of elements : 928
    Stream size : 45.1 KiB (0%)
    Title : FULL
    Language : Russian
    Default : No
    Forced : No

    Text #2
    ID : 8
    Format : UTF-8
    Codec ID : S_TEXT/UTF8
    Codec ID/Info : UTF-8 Plain Text
    Duration : 2 h 6 min
    Bit rate : 33 b/s
    Count of elements : 1042
    Stream size : 31.2 KiB (0%)
    Title : FULL
    Language : English
    Default : No
    Forced : No

    Menu #1
    00:00:00.000 : en:Main Title/Credits
    00:04:33.482 : en:"Solomon Islands - 1943"'
    00:08:51.656 : en:U.S. Naval Hospital
    00:13:01.322 : en:"Protect the Code"
    00:18:54.008 : en:Chitchat & Chow
    00:24:18.832 : en:Gambling Away Time
    00:27:36.280 : en:Marine Pep Talk
    00:31:50.200 : en:"To War"
    00:34:01.790 : en:Saipan - June 16, 1944
    00:36:47.539 : en:Battle Crazy
    00:42:50.943 : en:Decoding Coordinates
    00:49:23.961 : en:"Windtalkers"
    00:54:36.690 : en:Savage Prejudice
    00:58:10.612 : en:Ghostly Duo
    01:01:03.076 : en:"Dear Joe"
    01:03:57.083 : en:Under Friendly Fire
    01:07:45.561 : en:Disguised As the Enemy
    01:13:38.623 : en:Medal of Honor
    01:16:14.278 : en:Out of Balance
    01:23:47.898 : en:Pain Killers
    01:28:35.560 : en:"A Soldier of Christ"
    01:32:28.585 : en:"I Want Out"
    01:33:53.628 : en:Sudden Ambush
    01:41:05.476 : en:Senseless Death
    01:44:54.914 : en:Mourning a Loss
    01:47:47.920 : en:Caught in a Minefield
    01:52:52.057 : en:Some Don't Make It
    01:57:19.366 : en:Calling for Flyboys
    02:02:27.632 : en:"No One Else Is Dying"
    02:05:11.462 : en:A Hero in Battle
    02:07:35.648 : en:Remembering a Warrior
    02:09:43.609 : en:End Credits

    Menu #2
    00:00:00.000 : en:Main Title/Credits
    00:04:33.482 : en:"Solomon Islands - 1943"'
    00:08:51.656 : en:U.S. Naval Hospital
    00:13:01.322 : en:"Protect the Code"
    00:18:54.008 : en:Chitchat & Chow
    00:24:18.832 : en:Gambling Away Time
    00:27:36.280 : en:Marine Pep Talk
    00:31:50.200 : en:"To War"
    00:34:01.790 : en:Saipan - June 16, 1944
    00:36:47.539 : en:Battle Crazy
    00:42:50.943 : en:Decoding Coordinates
    00:49:23.961 : en:"Windtalkers"
    00:54:36.690 : en:Savage Prejudice
    00:58:10.612 : en:Ghostly Duo
    01:01:03.076 : en:"Dear Joe"
    01:03:57.083 : en:Under Friendly Fire
    01:07:45.561 : en:Disguised As the Enemy
    01:13:38.623 : en:Medal of Honor
    01:16:14.278 : en:Out of Balance
    01:23:47.898 : en:Pain Killers
    01:28:35.560 : en:"A Soldier of Christ"
    01:32:28.585 : en:"I Want Out"
    01:33:53.628 : en:Sudden Ambush
    01:41:05.476 : en:Senseless Death
    01:44:54.914 : en:Mourning a Loss
    01:47:47.920 : en:Caught in a Minefield
    01:52:52.057 : en:Some Don't Make It
    01:57:19.366 : en:Calling for Flyboys
    02:02:27.632 : en:"No One Else Is Dying"
    02:05:11.462 : en:A Hero in Battle
    02:07:35.648 : en:Remembering a Warrior
    02:09:43.609 : en:End Credits
10.0 из 10
голосов: 4
/10
/10
schultz 20-10-2016, 18:30
Информация
Посетители, находящиеся в группе Гости, не могут оставлять комментарии к данной публикации.