Панель пользователя
Регистрация

Воспользуйтесь социальными сетями для входа на https://freerutor.com

vk odnoklassniki facebook mailru yandex google
Популярное
Счетчик
Голосуй за нас
VIP на сайте
Популярное
Товары интернет магазина
загрузка...

Колония Дигнидад (2015) BDRip 1080p | iTunes

Колония Дигнидад (2015) BDRip 1080p | iTunes
Участники торрент обмена
Сидов Пиров Скачали
3 0 105
Характеристика
Размер Файлы
11.76 GB
Релиз группа
Поделиться раздачей
Фильмы (720,1080,Blu-Ray)
Наименование: Колония Дигнидад
Оригинальное наименование: Colonia
Категория: Триллер, драма, мелодрама, история
Произведено: Германия, Люксембург, Франция, Fred Films, Iris Productions, Majestic Filmproduktion, Rat Pack Filmproduktion GmbH
Режиссер постановщик: Флориан Галленбергер
В главных ролях: Эмма Уотсон, Даниэль Брюль, Микаэл Нюквист, Риченда Кэри, Вики Крипс, Джинн Вернер, Джулиан Овенден, Август Цирнер, Мартин Вуттке, Николас Барсофф
Краткое описание: Немецкий журналист Даниэль похищен в Чили тайной полицией и после немыслимых пыток отправлен в колонию «Дигнидад» — огромное поселение, выдающее себя за благотворительную коммуну, а на самом деле гнездо нацистов — беглецов из Третьего рейха. Колонию возглавляет бывший офицер вермахта, бесноватый проповедник Пауль Шефер, внушающий пастве пользу умерщвления плоти и бесплатного труда от заката до рассвета. В «Дигнидад» легко попасть, но обратной дороги нет. Здесь Даниэлю предстоит превратиться в раба и «материал» для бесчеловечных экспериментов.
  • Видео данные: MPEG-4 AVC, 13.4 Мбит/с, 1920x800
    Аудио данные: Русский (AC3, 6 ch, 384 Кбит/с), английский (DTS, 6 ch, 1510 Кбит/с)
    Перевод: Дублированный [iTunes]
    Продолжительность: 01:49:58
    Субтитры: Английские
  • Колония Дигнидад (2015) BDRip 1080p | iTunes Колония Дигнидад (2015) BDRip 1080p | iTunes Колония Дигнидад (2015) BDRip 1080p | iTunes
  • General
    Unique ID : 223523914409187831382411740813115734551 (0xA82923D7599A84FAA83D0F11BCE33A17)
    Complete name : F:\Video\Colonia.2015.BDRip.1080p.ExKinoRay.mkv
    Format : Matroska
    Format version : Version 4 / Version 2
    File size : 11.8 GiB
    Duration : 1h 49mn
    Overall bit rate : 15.3 Mbps
    Movie name : Colonia.2015.BDRip.1080p.ExKinoRay
    Encoded date : UTC 2016-06-09 22:26:56
    Writing application : mkvmerge v8.3.0 ('Over the Horizon') 64bit
    Writing library : libebml v1.3.1 + libmatroska v1.4.2

    Video
    ID : 1
    Format : AVC
    Format/Info : Advanced Video Codec
    Format profile : High@L4.1
    Format settings, CABAC : Yes
    Format settings, ReFrames : 5 frames
    Codec ID : V_MPEG4/ISO/AVC
    Duration : 1h 49mn
    Bit rate : 13.4 Mbps
    Width : 1 920 pixels
    Height : 800 pixels
    Display aspect ratio : 2.40:1
    Frame rate mode : Constant
    Frame rate : 23.976 (24000/1001) fps
    Color space : YUV
    Chroma subsampling : 4:2:0
    Bit depth : 8 bits
    Scan type : Progressive
    Bits/(Pixel*Frame) : 0.365
    Stream size : 10.3 GiB (88%)
    Title : Colonia.2015.BDRip.1080p.ExKinoRay.***селезень***
    Writing library : x264 core 146 r2538 121396c
    Encoding settings : cabac=1 / ref=5 / deblock=1:-3:-3 / analyse=0x3:0x133 / me=umh / subme=10 / psy=1 / psy_rd=1.10:0.00 / mixed_ref=1 / me_range=32 / chroma_me=1 / trellis=2 / 8x8dct=1 / cqm=0 / deadzone=21,11 / fast_pskip=0 / chroma_qp_offset=-2 / threads=6 / lookahead_threads=2 / sliced_threads=0 / nr=0 / decimate=0 / interlaced=0 / bluray_compat=0 / constrained_intra=0 / bframes=8 / b_pyramid=2 / b_adapt=2 / b_bias=0 / direct=3 / weightb=1 / open_gop=0 / weightp=2 / keyint=240 / keyint_min=23 / scenecut=40 / intra_refresh=0 / rc_lookahead=150 / rc=2pass / mbtree=1 / bitrate=13439 / ratetol=1.0 / qcomp=0.70 / qpmin=0 / qpmax=69 / qpstep=4 / cplxblur=20.0 / qblur=0.5 / vbv_maxrate=50000 / vbv_bufsize=62500 / nal_hrd=none / filler=0 / ip_ratio=1.40 / aq=3:0.80
    Language : English
    Default : Yes
    Forced : No

    Audio #1
    ID : 2
    Format : AC-3
    Format/Info : Audio Coding 3
    Mode extension : CM (complete main)
    Format settings, Endianness : Big
    Codec ID : A_AC3
    Duration : 1h 49mn
    Bit rate mode : Constant
    Bit rate : 384 Kbps
    Channel(s) : 6 channels
    Channel positions : Front: L C R, Side: L R, LFE
    Sampling rate : 48.0 KHz
    Frame rate : 31.250 fps (1536 spf)
    Compression mode : Lossy
    Stream size : 302 MiB (3%)
    Title : DUB [iTunes]
    Language : Russian
    Default : Yes
    Forced : No

    Audio #2
    ID : 3
    Format : DTS
    Format/Info : Digital Theater Systems
    Mode : 16
    Format settings, Endianness : Big
    Codec ID : A_DTS
    Duration : 1h 49mn
    Bit rate mode : Constant
    Bit rate : 1 509 Kbps
    Channel(s) : 6 channels
    Channel positions : Front: L C R, Side: L R, LFE
    Sampling rate : 48.0 KHz
    Frame rate : 93.750 fps (512 spf)
    Bit depth : 24 bits
    Compression mode : Lossy
    Delay relative to video : 11ms
    Stream size : 1.16 GiB (10%)
    Title : Original
    Language : English
    Default : No
    Forced : No

    Text
    ID : 4
    Format : UTF-8
    Codec ID : S_TEXT/UTF8
    Codec ID/Info : UTF-8 Plain Text
    Duration : 1h 42mn
    Bit rate : 33 bps
    Count of elements : 1102
    Stream size : 25.5 KiB (0%)
    Language : English
    Default : No
    Forced : No

    Menu
    00:00:00.000 : en:00:00:00.000
    00:09:30.987 : en:00:09:30.987
    00:19:25.206 : en:00:19:25.206
    00:25:26.692 : en:00:25:26.692
    00:33:36.348 : en:00:33:36.348
    00:43:41.994 : en:00:43:41.994
    00:47:41.400 : en:00:47:41.400
    01:06:31.112 : en:01:06:31.112
    01:15:26.397 : en:01:15:26.397
    01:25:35.797 : en:01:25:35.797
    01:34:36.963 : en:01:34:36.963
    01:46:10.322 : en:01:46:10.322
5.0 из 10
голосов: 1
/10
/10
Swager 19-10-2016, 19:26
Информация
Посетители, находящиеся в группе Гости, не могут оставлять комментарии к данной публикации.