Панель пользователя
Регистрация

Воспользуйтесь социальными сетями для входа на https://freerutor.com

vk odnoklassniki facebook mailru yandex google
Популярное
Счетчик
Голосуй за нас
VIP на сайте
Популярное
Товары интернет магазина
загрузка...

Говорящие с ветром (2002) BDRip-AVC | Лицензия, P, A | R.G.Resident

Говорящие с ветром (2002) BDRip-AVC  | Лицензия, P, A | R.G.Resident
Участники торрент обмена
Сидов Пиров Скачали
0 0 24
Характеристика
Размер Файлы
6.29 GB
Релиз группа
Поделиться раздачей
Фильмы (AVC)
Наименование: Говорящие с ветром
Оригинальное наименование: Windtalkers
Категория: боевик, драма, военный
Произведено: США
Режиссер постановщик: Джон Ву
В главных ролях: Николас Кэйдж, Адам Бич, Питер Стормар, Ной Эммерих, Марк Руффало, Брайан Ван Холт, Мартин Хендерсон, Роджер Уилли, Фрэнсис О`Коннор, Кристиан Слэйтер, Джейсон Айзекс, Билли Мортс, Камерон Тор, Кевин Куни, Холмс Осборн, Кейт Кэмпбелл, Клэйтон Дж. Барбер, Скотт Эткинсон, Джереми Дэвидсон, Брайан Мэйнард, Альберт Смит
Краткое описание: Вторая мировая война. Америка ведет ожесточенные бои с японцами в Тихом океане. В течении этой войны японцы искусно расшифровывают секретные американские радиограммы. Это обстоятельство заставило американское правительство завербовать несколько сотен индейцев Навахо, чтобы использовать их родной язык в качестве кода для секретных сообщений.
  • Видео данные: MPEG-4 AVC, 4200 Кбит/с, 1024x424
    Аудио данные: Русский (AC3, 6 ch, 384 Кбит/с), Русский (AC3, 2 ch, 192 Кбит/с), английский (АС3, 6 ch, 384 Кбит/с)
    Перевод: Перевод #1: Профессиональный (дублированный) R5
    Перевод #2: Профессиональный (многоголосый закадровый) Карусель
    Перевод #3: Профессиональный (многоголосый закадровый) CP Digital
    Перевод #4: Профессиональный (многоголосый закадровый) Двадцатый Век Фокс СНГ
    Перевод #5: Авторский (одноголосый закадровый) Ю.Живов
    Перевод #6: Авторский (одноголосый закадровый) Андрей Дольский
    Перевод #7: английский (оригинал)
    Продолжительность: 02:14:21
    Субтитры: русские (FULL), английские (FULL)
  • Говорящие с ветром (2002) BDRip-AVC  | Лицензия, P, A | R.G.Resident Говорящие с ветром (2002) BDRip-AVC  | Лицензия, P, A | R.G.Resident Говорящие с ветром (2002) BDRip-AVC  | Лицензия, P, A | R.G.Resident
  • x264 [info]: frame I:1417 Avg QP:15.93 size: 82885
    x264 [info]: frame P:45666 Avg QP:19.63 size: 37277
    x264 [info]: frame B:146187 Avg QP:21.31 size: 16491

    General
    Unique ID : 197939312809077398802675366573649072185 (0x94E9B997B3C9FFF48EED1933248E9039)
    Complete name : D:downloadWindtalkers.2002.BDRip-AVC by schultz R.G.Resident.mkv
    Format : Matroska
    Format version : Version 4 / Version 2
    File size : 6.29 GiB
    Duration : 2 h 14 min
    Overall bit rate : 6 698 kb/s
    Encoded date : UTC 2016-10-18 13:40:43
    Writing application : mkvmerge v8.9.0 ('Father Daughter') 64bit
    Writing library : libebml v1.3.3 + libmatroska v1.4.4

    Video
    ID : 1
    Format : AVC
    Format/Info : Advanced Video Codec
    Format profile : High@L4.1
    Format settings, CABAC : Yes
    Format settings, ReFrames : 12 frames
    Codec ID : V_MPEG4/ISO/AVC
    Duration : 2 h 14 min
    Bit rate : 4 200 kb/s
    Width : 1 024 pixels
    Height : 424 pixels
    Display aspect ratio : 2.40:1
    Frame rate mode : Constant
    Frame rate : 23.976 (23976/1000) FPS
    Color space : YUV
    Chroma subsampling : 4:2:0
    Bit depth : 8 bits
    Scan type : Progressive
    Bits/(Pixel*Frame) : 0.403
    Stream size : 3.94 GiB (63%)
    Writing library : x264 core 146 r2538 121396c
    Encoding settings : cabac=1 / ref=12 / deblock=1:-3:-3 / analyse=0x3:0x113 / me=umh / subme=11 / psy=1 / psy_rd=1.00:0.00 / mixed_ref=1 / me_range=48 / chroma_me=1 / trellis=2 / 8x8dct=1 / cqm=0 / deadzone=21,11 / fast_pskip=0 / chroma_qp_offset=-2 / threads=12 / lookahead_threads=3 / sliced_threads=0 / nr=0 / decimate=0 / interlaced=0 / bluray_compat=0 / constrained_intra=0 / bframes=11 / b_pyramid=2 / b_adapt=2 / b_bias=0 / direct=3 / weightb=1 / open_gop=0 / weightp=2 / keyint=240 / keyint_min=23 / scenecut=40 / intra_refresh=0 / rc_lookahead=40 / rc=2pass / mbtree=1 / bitrate=4200 / ratetol=1.0 / qcomp=0.60 / qpmin=0 / qpmax=69 / qpstep=4 / cplxblur=20.0 / qblur=0.5 / vbv_maxrate=50000 / vbv_bufsize=62500 / nal_hrd=none / filler=0 / ip_ratio=1.40 / aq=1:1.00
    Language : English
    Default : Yes
    Forced : No

    Audio #1
    ID : 2
    Format : AC-3
    Format/Info : Audio Coding 3
    Mode extension : CM (complete main)
    Format settings, Endianness : Big
    Codec ID : A_AC3
    Duration : 2 h 14 min
    Bit rate mode : Constant
    Bit rate : 384 kb/s
    Channel(s) : 6 channels
    Channel positions : Front: L C R, Side: L R, LFE
    Sampling rate : 48.0 kHz
    Frame rate : 31.250 FPS (1536 spf)
    Compression mode : Lossy
    Stream size : 369 MiB (6%)
    Title : Дублированный
    Language : Russian
    Default : Yes
    Forced : No

    Audio #2
    ID : 3
    Format : AC-3
    Format/Info : Audio Coding 3
    Mode extension : CM (complete main)
    Format settings, Endianness : Big
    Codec ID : A_AC3
    Duration : 2 h 14 min
    Bit rate mode : Constant
    Bit rate : 384 kb/s
    Channel(s) : 6 channels
    Channel positions : Front: L C R, Side: L R, LFE
    Sampling rate : 48.0 kHz
    Frame rate : 31.250 FPS (1536 spf)
    Compression mode : Lossy
    Stream size : 369 MiB (6%)
    Title : Карусель
    Language : Russian
    Default : No
    Forced : No

    Audio #3
    ID : 4
    Format : AC-3
    Format/Info : Audio Coding 3
    Mode extension : CM (complete main)
    Format settings, Endianness : Big
    Codec ID : A_AC3
    Duration : 2 h 14 min
    Bit rate mode : Constant
    Bit rate : 384 kb/s
    Channel(s) : 6 channels
    Channel positions : Front: L C R, Side: L R, LFE
    Sampling rate : 48.0 kHz
    Frame rate : 31.250 FPS (1536 spf)
    Compression mode : Lossy
    Stream size : 369 MiB (6%)
    Title : CP Digital
    Language : Russian
    Default : No
    Forced : No

    Audio #4
    ID : 5
    Format : AC-3
    Format/Info : Audio Coding 3
    Mode extension : CM (complete main)
    Format settings, Endianness : Big
    Codec ID : A_AC3
    Duration : 2 h 14 min
    Bit rate mode : Constant
    Bit rate : 384 kb/s
    Channel(s) : 6 channels
    Channel positions : Front: L C R, Side: L R, LFE
    Sampling rate : 48.0 kHz
    Frame rate : 31.250 FPS (1536 spf)
    Compression mode : Lossy
    Stream size : 369 MiB (6%)
    Title : Двадцатый Век Фокс СНГ
    Language : Russian
    Default : No
    Forced : No

    Audio #5
    ID : 6
    Format : AC-3
    Format/Info : Audio Coding 3
    Mode extension : CM (complete main)
    Format settings, Endianness : Big
    Codec ID : A_AC3
    Duration : 2 h 14 min
    Bit rate mode : Constant
    Bit rate : 384 kb/s
    Channel(s) : 6 channels
    Channel positions : Front: L C R, Side: L R, LFE
    Sampling rate : 48.0 kHz
    Frame rate : 31.250 FPS (1536 spf)
    Compression mode : Lossy
    Stream size : 369 MiB (6%)
    Title : Живов
    Language : Russian
    Default : No
    Forced : No

    Audio #6
    ID : 7
    Format : AC-3
    Format/Info : Audio Coding 3
    Mode extension : CM (complete main)
    Format settings, Endianness : Big
    Codec ID : A_AC3
    Duration : 2 h 14 min
    Bit rate mode : Constant
    Bit rate : 192 kb/s
    Channel(s) : 2 channels
    Channel positions : Front: L R
    Sampling rate : 48.0 kHz
    Frame rate : 31.250 FPS (1536 spf)
    Compression mode : Lossy
    Stream size : 185 MiB (3%)
    Title : Андрей Дольский
    Language : Russian
    Default : No
    Forced : No

    Audio #7
    ID : 8
    Format : AC-3
    Format/Info : Audio Coding 3
    Mode extension : CM (complete main)
    Format settings, Endianness : Big
    Codec ID : A_AC3
    Duration : 2 h 14 min
    Bit rate mode : Constant
    Bit rate : 384 kb/s
    Channel(s) : 6 channels
    Channel positions : Front: L C R, Side: L R, LFE
    Sampling rate : 48.0 kHz
    Frame rate : 31.250 FPS (1536 spf)
    Compression mode : Lossy
    Stream size : 369 MiB (6%)
    Language : English
    Default : No
    Forced : No

    Text #1
    ID : 9
    Format : UTF-8
    Codec ID : S_TEXT/UTF8
    Codec ID/Info : UTF-8 Plain Text
    Duration : 2 h 5 min
    Bit rate : 49 b/s
    Count of elements : 929
    Stream size : 45.1 KiB (0%)
    Title : FULL
    Language : Russian
    Default : No
    Forced : No

    Text #2
    ID : 10
    Format : UTF-8
    Codec ID : S_TEXT/UTF8
    Codec ID/Info : UTF-8 Plain Text
    Duration : 2 h 4 min
    Bit rate : 31 b/s
    Count of elements : 880
    Stream size : 28.8 KiB (0%)
    Title : FULL
    Language : English
    Default : No
    Forced : No

    Menu
    00:00:00.000 : en:00:00:00.000
    00:04:33.482 : en:00:04:33.482
    00:08:51.656 : en:00:08:51.656
    00:13:01.322 : en:00:13:01.322
    00:18:54.008 : en:00:18:54.008
    00:24:18.832 : en:00:24:18.832
    00:27:36.280 : en:00:27:36.280
    00:31:50.200 : en:00:31:50.200
    00:34:01.790 : en:00:34:01.790
    00:36:47.539 : en:00:36:47.539
    00:42:50.943 : en:00:42:50.943
    00:49:23.961 : en:00:49:23.961
    00:54:36.690 : en:00:54:36.690
    00:58:10.612 : en:00:58:10.612
    01:01:03.076 : en:01:01:03.076
    01:03:57.083 : en:01:03:57.083
    01:07:45.561 : en:01:07:45.561
    01:13:38.623 : en:01:13:38.623
    01:16:14.278 : en:01:16:14.278
    01:23:47.898 : en:01:23:47.898
    01:28:35.560 : en:01:28:35.560
    01:32:28.585 : en:01:32:28.585
    01:33:53.628 : en:01:33:53.628
    01:41:05.476 : en:01:41:05.476
    01:44:54.914 : en:01:44:54.914
    01:47:47.920 : en:01:47:47.920
    01:52:52.057 : en:01:52:52.057
    01:57:19.366 : en:01:57:19.366
    02:02:27.632 : en:02:02:27.632
    02:05:11.462 : en:02:05:11.462
    02:07:35.648 : en:02:07:35.648
    02:09:43.609 : en:02:09:43.609
10.0 из 10
голосов: 2
/10
/10
schultz 18-10-2016, 20:22

schultz | 18-10-2016, 20:31 | Статус: Оффлайн

поправил drinks

STARBIT | 18-10-2016, 20:27 | Статус: Оффлайн

в шапке исправте

Neon | 18-10-2016, 20:25 | Статус: Оффлайн

Фильм 2002 года, а не 2016.
Информация
Посетители, находящиеся в группе Гости, не могут оставлять комментарии к данной публикации.