Панель пользователя
Регистрация

Воспользуйтесь социальными сетями для входа на https://freerutor.com

vk odnoklassniki facebook mailru yandex google
Популярное
Счетчик
Голосуй за нас
VIP на сайте
Популярное
Товары интернет магазина
загрузка...

Очень плохие мамочки (2016) BDRip 720p | iTunes

Очень плохие мамочки (2016) BDRip 720p | iTunes
Участники торрент обмена
Сидов Пиров Скачали
46 2 1508
Характеристика
Размер Файлы
6.04 GB
Поделиться раздачей
Фильмы (720,1080,Blu-Ray)
Наименование: Очень плохие мамочки
Оригинальное наименование: Bad Moms
Произведено: США
Категория: комедия
Режиссер постановщик: Джон Лукас, Скотт Мур
В главных ролях: Мила Кунис, Кэтрин Хан, Кристен Белл, Кристина Эпплгейт, Джада Пинкетт Смит, Энни Мумоло, Уна Лоуренс, Эмджей Энтони, Дэвид Уолтон, Кларк Дьюк
Краткое описание: Идеальная мать, прекрасная жена, хорошая домохозяйка с успешной карьерой... Но стоит немного расслабиться, как тебе сразу напоминают о твоих обязанностях. Почему только мужчины имеют право развлекаться? Сколько же можно это терпеть?! Пора команде отчаянных мамочек пуститься во все тяжкие.
  • Видео данные: MKV (x264), 6500 kb/s, 1280x534
    Аудио данные: Русский (AC3, 6 ch, 384 Кбит/с), английский (DTS, 6 ch, 1509 Кбит/с)
    Перевод: Дублированный (iTunes)
    Субтитры: Английские
    Продолжительность: 01:40:57
  • Очень плохие мамочки (2016) BDRip 720p | iTunes Очень плохие мамочки (2016) BDRip 720p | iTunes Очень плохие мамочки (2016) BDRip 720p | iTunes
  • Общее
    Уникальный идентификатор : 250027573995807174008037411886046375405 (0xBC198F25A4073B4596DF9ED38D0BEDED)
    Полное имя : D:\загрузки\Bad.Moms.2016.D.720p.BluRay.mkv
    Формат : Matroska
    Версия формата : Version 2
    Размер файла : 6,04 Гбайт
    Продолжительность : 1 ч. 40 м.
    Общий поток : 8562 Кбит/сек
    Дата кодирования : UTC 2016-10-26 21:57:22
    Программа кодирования : mkvmerge v7.8.0 ('River Man') 32bit built on Apr 3 2015 12:11:22
    Библиотека кодирования : libebml v1.3.1 + libmatroska v1.4.2

    Видео
    Идентификатор : 1
    Формат : AVC
    Формат/Информация : Advanced Video Codec
    Профиль формата : High@L4.1
    Параметр CABAC формата : Да
    Параметр ReFrames формата : 12 кадров
    Идентификатор кодека : V_MPEG4/ISO/AVC
    Продолжительность : 1 ч. 40 м.
    Битрейт : 6499 Кбит/сек
    Ширина : 1280 пикселей
    Высота : 534 пикселя
    Соотношение сторон : 2,40:1
    Режим частоты кадров : Постоянный
    Частота кадров : 23,976 кадра/сек
    Цветовое пространство : YUV
    Субдискретизация насыщенности : 4:2:0
    Битовая глубина : 8 бит
    Тип развёртки : Прогрессивная
    Бит/(Пиксели*Кадры) : 0.397
    Размер потока : 4,58 Гбайт (76%)
    Библиотека кодирования : x264 core 142 r2431+42 c69a006 tMod [8-bit@all X86_64]
    Настройки программы : cabac=1 / ref=12 / deblock=1:-3:-3 / analyse=0x3:0x133 / me=umh / subme=11 / psy=1 / fade_compensate=0.00 / psy_rd=1.05:1.00 / mixed_ref=1 / me_range=32 / chroma_me=1 / trellis=2 / 8x8dct=1 / cqm=0 / deadzone=21,11 / fast_pskip=0 / chroma_qp_offset=-4 / threads=42 / lookahead_threads=4 / sliced_threads=0 / nr=0 / decimate=0 / interlaced=0 / bluray_compat=0 / constrained_intra=0 / fgo=0 / bframes=8 / b_pyramid=2 / b_adapt=2 / b_bias=0 / direct=3 / weightb=1 / open_gop=0 / weightp=2 / keyint=250 / keyint_min=23 / scenecut=40 / intra_refresh=0 / rc_lookahead=60 / rc=crf / mbtree=0 / crf=17.7000 / qcomp=0.60 / qpmin=0:0:0 / qpmax=69:69:69 / qpstep=4 / vbv_maxrate=40000 / vbv_bufsize=30000 / crf_max=0.0 / nal_hrd=none / filler=0 / ip_ratio=1.40 / pb_ratio=1.30 / aq=1:1.00 / aq-sensitivity=10.00 / aq-factor=1.00:1.00:1.00 / aq2=0 / aq3=0
    Язык : English
    Default : Да
    Forced : Нет

    Аудио #1
    Идентификатор : 2
    Формат : AC-3
    Формат/Информация : Audio Coding 3
    Расширение режима : CM (complete main)
    Параметр Endianness формата : Big
    Идентификатор кодека : A_AC3
    Продолжительность : 1 ч. 40 м.
    Вид битрейта : Постоянный
    Битрейт : 384 Кбит/сек
    Каналы : 6 каналов
    Расположение каналов : Front: L C R, Side: L R, LFE
    Частота : 48,0 КГц
    Битовая глубина : 16 бит
    Метод сжатия : С потерями
    Размер потока : 277 Мбайт (4%)
    Заголовок : iTunes
    Язык : Russian
    Default : Да
    Forced : Нет

    Аудио #2
    Идентификатор : 3
    Формат : DTS
    Формат/Информация : Digital Theater Systems
    Режим : 16
    Параметр Endianness формата : Big
    Идентификатор кодека : A_DTS
    Продолжительность : 1 ч. 40 м.
    Вид битрейта : Постоянный
    Битрейт : 1509 Кбит/сек
    Каналы : 6 каналов
    Расположение каналов : Front: L C R, Side: L R, LFE
    Частота : 48,0 КГц
    Битовая глубина : 24 бит
    Метод сжатия : С потерями
    Размер потока : 1,06 Гбайт (18%)
    Язык : English
    Default : Нет
    Forced : Нет

    Текст
    Идентификатор : 4
    Формат : UTF-8
    Идентификатор кодека : S_TEXT/UTF8
    Идентификатор кодека/Информация : UTF-8 Plain Text
    Язык : English
    Default : Нет
    Forced : Нет

    Меню
    00:00:00.000 : en:Chapter 1
    00:04:58.548 : en:Chapter 2
    00:09:17.056 : en:Chapter 3
    00:16:04.839 : en:Chapter 4
    00:21:45.221 : en:Chapter 5
    00:26:46.271 : en:Chapter 6
    00:29:36.149 : en:Chapter 7
    00:35:35.508 : en:Chapter 8
    00:39:20.900 : en:Chapter 9
    00:44:41.012 : en:Chapter 10
    00:48:33.202 : en:Chapter 11
    00:53:43.178 : en:Chapter 12
    00:59:08.503 : en:Chapter 13
    01:04:24.110 : en:Chapter 14
    01:08:55.882 : en:Chapter 15
    01:14:03.856 : en:Chapter 16
    01:18:57.358 : en:Chapter 17
    01:23:48.982 : en:Chapter 18
    01:26:58.713 : en:Chapter 19
    01:32:59.073 : en:Chapter 20
4.4 из 10
голосов: 8
/10
/10
foster720p 27-10-2016, 01:03
Информация
Посетители, находящиеся в группе Гости, не могут оставлять комментарии к данной публикации.