Панель пользователя
Регистрация

Воспользуйтесь социальными сетями для входа на https://freerutor.com

vk odnoklassniki facebook mailru yandex google
Популярное
Счетчик
Голосуй за нас
VIP на сайте
Популярное
Товары интернет магазина
загрузка...

Капитан Фантастик (2016) BDRip-AVC | iTunes | R.G.Resident

Капитан Фантастик (2016) BDRip-AVC | iTunes | R.G.Resident
Участники торрент обмена
Сидов Пиров Скачали
2 0 2065
Характеристика
Размер Файлы
3.06 GB
Релиз группа
Поделиться раздачей
Фильмы (AVC)
Наименование: Капитан Фантастик
Оригинальное наименование: Captain Fantastic
Категория: драма, мелодрама, комедия
Произведено: США
Режиссер постановщик: Мэтт Росс
В главных ролях: Вигго Мортенсен, Джордж МакКэй, Саманта Ислер, Анналиса Бассо, Николас Хэмилтон, Шри Крукс, Чарли Шотуэлл, Трин Миллер, Кэтрин Хан, Стив Зан
Краткое описание: Они говорят на нескольких языках, знают квантовую физику и разбираются в философии. Они умеют охотиться и обращаться с оружием. Они живут в лесу в полной гармонии с природой. Лишь стечение обстоятельств заставляет их покинуть родной дом и отправиться в большой город. Что будет, когда они столкнутся с цивилизацией, когда на них обрушится первая любовь и мир гаджетов и социальных сетей?
  • Видео данные: MPEG-4 AVC, 2831 Кбит/с, 1024x426
    Аудио данные: Русский (AC3, 6 ch, 384 Кбит/с), английский (АС3, 6 ch, 448 Кбит/с)
    Перевод: Профессиональный многоголосый [iTunes]
    Продолжительность: 01:59:29
    Субтитры: английские (Full)
  • Капитан Фантастик (2016) BDRip-AVC | iTunes | R.G.Resident Капитан Фантастик (2016) BDRip-AVC | iTunes | R.G.Resident Капитан Фантастик (2016) BDRip-AVC | iTunes | R.G.Resident
  • General
    Unique ID : 252261381186942984133484156106497535989 (0xBDC7C6583F384F22A3B6A689D3932FF5)
    Complete name : D:downloadCaptain.Fantastic.2016.BDRip-AVC by schultz R.G.Resident.mkv
    Format : Matroska
    Format version : Version 4 / Version 2
    File size : 3.06 GiB
    Duration : 1 h 59 min
    Overall bit rate : 3 663 kb/s
    Encoded date : UTC 2016-10-17 10:09:57
    Writing application : mkvmerge v8.9.0 ('Father Daughter') 64bit
    Writing library : libebml v1.3.3 + libmatroska v1.4.4

    Video
    ID : 1
    Format : AVC
    Format/Info : Advanced Video Codec
    Format profile : High@L4.1
    Format settings, CABAC : Yes
    Format settings, ReFrames : 12 frames
    Codec ID : V_MPEG4/ISO/AVC
    Duration : 1 h 59 min
    Bit rate : 2 831 kb/s
    Width : 1 024 pixels
    Height : 426 pixels
    Display aspect ratio : 2.40:1
    Frame rate mode : Constant
    Frame rate : 23.976 (23976/1000) FPS
    Color space : YUV
    Chroma subsampling : 4:2:0
    Bit depth : 8 bits
    Scan type : Progressive
    Bits/(Pixel*Frame) : 0.271
    Stream size : 2.36 GiB (77%)
    Writing library : x264 core 146 r2538 121396c
    Encoding settings : cabac=1 / ref=12 / deblock=1:-3:-3 / analyse=0x3:0x113 / me=umh / subme=11 / psy=1 / psy_rd=1.00:0.00 / mixed_ref=1 / me_range=48 / chroma_me=1 / trellis=2 / 8x8dct=1 / cqm=0 / deadzone=21,11 / fast_pskip=0 / chroma_qp_offset=-2 / threads=12 / lookahead_threads=3 / sliced_threads=0 / nr=0 / decimate=0 / interlaced=0 / bluray_compat=0 / constrained_intra=0 / bframes=11 / b_pyramid=2 / b_adapt=2 / b_bias=0 / direct=3 / weightb=1 / open_gop=0 / weightp=2 / keyint=240 / keyint_min=23 / scenecut=40 / intra_refresh=0 / rc_lookahead=40 / rc=2pass / mbtree=1 / bitrate=2831 / ratetol=1.0 / qcomp=0.60 / qpmin=0 / qpmax=69 / qpstep=4 / cplxblur=20.0 / qblur=0.5 / vbv_maxrate=50000 / vbv_bufsize=62500 / nal_hrd=none / filler=0 / ip_ratio=1.40 / aq=1:1.00
    Language : English
    Default : Yes
    Forced : No

    Audio #1
    ID : 2
    Format : AC-3
    Format/Info : Audio Coding 3
    Mode extension : CM (complete main)
    Format settings, Endianness : Big
    Codec ID : A_AC3
    Duration : 1 h 59 min
    Bit rate mode : Constant
    Bit rate : 384 kb/s
    Channel(s) : 6 channels
    Channel positions : Front: L C R, Side: L R, LFE
    Sampling rate : 48.0 kHz
    Frame rate : 31.250 FPS (1536 spf)
    Compression mode : Lossy
    Stream size : 328 MiB (10%)
    Language : Russian
    Default : Yes
    Forced : No

    Audio #2
    ID : 3
    Format : AC-3
    Format/Info : Audio Coding 3
    Mode extension : CM (complete main)
    Format settings, Endianness : Big
    Codec ID : A_AC3
    Duration : 1 h 59 min
    Bit rate mode : Constant
    Bit rate : 448 kb/s
    Channel(s) : 6 channels
    Channel positions : Front: L C R, Side: L R, LFE
    Sampling rate : 48.0 kHz
    Frame rate : 31.250 FPS (1536 spf)
    Compression mode : Lossy
    Stream size : 383 MiB (12%)
    Language : English
    Default : No
    Forced : No

    Text
    ID : 4
    Format : UTF-8
    Codec ID : S_TEXT/UTF8
    Codec ID/Info : UTF-8 Plain Text
    Duration : 1 h 51 min
    Bit rate : 47 b/s
    Count of elements : 1324
    Stream size : 39.2 KiB (0%)
    Title : Full
    Language : English
    Default : No
    Forced : No

    Menu
    00:00:00.000 : en:00:00:00.000
    00:05:14.272 : en:00:05:14.272
    00:11:12.046 : en:00:11:12.046
    00:17:34.220 : en:00:17:34.220
    00:25:20.728 : en:00:25:20.728
    00:31:37.187 : en:00:31:37.187
    00:37:41.509 : en:00:37:41.509
    00:40:25.548 : en:00:40:25.548
    00:46:10.601 : en:00:46:10.601
    00:54:03.449 : en:00:54:03.449
    00:59:34.696 : en:00:59:34.696
    01:08:21.431 : en:01:08:21.431
    01:14:08.486 : en:01:14:08.486
    01:20:18.647 : en:01:20:18.647
    01:24:30.774 : en:01:24:30.774
    01:30:19.331 : en:01:30:19.331
    01:36:52.807 : en:01:36:52.807
    01:43:03.719 : en:01:43:03.719
    01:48:23.163 : en:01:48:23.163
    01:52:47.344 : en:01:52:47.344
7.0 из 10
голосов: 3
/10
/10
schultz 17-10-2016, 13:52
Информация
Посетители, находящиеся в группе Гости, не могут оставлять комментарии к данной публикации.