Панель пользователя
Регистрация

Воспользуйтесь социальными сетями для входа на https://freerutor.com

vk odnoklassniki facebook mailru yandex google
Популярное
Счетчик
Голосуй за нас
VIP на сайте
Популярное
Товары интернет магазина
загрузка...

Человек - швейцарский нож (2016) Blu-Ray Remux 1080p

Человек - швейцарский нож (2016) Blu-Ray Remux 1080p
Участники торрент обмена
Сидов Пиров Скачали
4 0 191
Характеристика
Размер Файлы
26.78 GB
Релиз группа
Поделиться раздачей
Фильмы (720,1080,Blu-Ray)
Наименование: Человек – швейцарский нож
Оригинальное наименование: Swiss Army Man
Категория: Мюзикл, фэнтези, драма, мелодрама, комедия, приключения
Произведено: США, Blackbird Films, Cold Iron Pictures, Tadmor
Режиссер:Дэн Кван, Дэниэл Шайнерт
В главных ролях: Тимоти Йолих, Ричард Гросс, Дэниэл Рэдклифф, Мэри Элизабет Уинстэд, Энди Халл, Антония Риберо, Аарон Маршалл, Пол Дано, Марика Кастил
  • Видео данные: MPEG-4 AVC, 34.2 Мбит/с, 1920x1080
    Аудио данные: Русский (AC3, 6 ch, 384 Кбит/с), английский (TrueHD, 8 ch, 4685 Кбит/с)
    Перевод: Дублированный [iTunes Russia]
    Продолжительность: 01:37:23
    Субтитры: Английские
  • Человек - швейцарский нож (2016) Blu-Ray Remux 1080p Человек - швейцарский нож (2016) Blu-Ray Remux 1080p Человек - швейцарский нож (2016) Blu-Ray Remux 1080p
  • General
    Unique ID : 248856173270974528426960989551455069954 (0xBB37F4A1DCAF1A6784C2C68C03BF6702)
    Complete name : H:\Video\Swiss.Army.Man.2016.BDREMUX.1080p.ExKinoRay.mkv
    Format : Matroska
    Format version : Version 4 / Version 2
    File size : 26.8 GiB
    Duration : 1 h 37 min
    Overall bit rate mode : Variable
    Overall bit rate : 39.4 Mb/s
    Movie name : build by ***селезень***
    Encoded date : UTC 2016-09-25 05:13:39
    Writing application : mkvmerge v8.3.0 ('Over the Horizon') 64bit
    Writing library : libebml v1.3.1 + libmatroska v1.4.2

    Video
    ID : 1
    Format : AVC
    Format/Info : Advanced Video Codec
    Format profile : High@L4.1
    Format settings, CABAC : Yes
    Format settings, ReFrames : 4 frames
    Codec ID : V_MPEG4/ISO/AVC
    Duration : 1 h 37 min
    Bit rate mode : Variable
    Bit rate : 34.2 Mb/s
    Maximum bit rate : 36.5 Mb/s
    Width : 1 920 pixels
    Height : 1 080 pixels
    Display aspect ratio : 16:9
    Frame rate mode : Constant
    Frame rate : 23.976 (24000/1001) FPS
    Color space : YUV
    Chroma subsampling : 4:2:0
    Bit depth : 8 bits
    Scan type : Progressive
    Bits/(Pixel*Frame) : 0.688
    Stream size : 23.3 GiB (87%)
    Title : build by ***селезень***
    Language : English
    Default : Yes
    Forced : No

    Audio #1
    ID : 2
    Format : AC-3
    Format/Info : Audio Coding 3
    Mode extension : CM (complete main)
    Format settings, Endianness : Big
    Codec ID : A_AC3
    Duration : 1 h 37 min
    Bit rate mode : Constant
    Bit rate : 384 kb/s
    Channel(s) : 6 channels
    Channel positions : Front: L C R, Side: L R, LFE
    Sampling rate : 48.0 kHz
    Frame rate : 31.250 FPS (1536 spf)
    Compression mode : Lossy
    Stream size : 267 MiB (1%)
    Title : iTunes
    Language : Russian
    Default : Yes
    Forced : No

    Audio #2
    ID : 3
    Format : Atmos / TrueHD
    Codec ID : A_TRUEHD
    Duration : 1 h 37 min
    Bit rate mode : Variable
    Bit rate : 4 685 kb/s
    Maximum bit rate : 8 526 kb/s
    Channel(s) : Object Based / 8 channels
    Channel positions : Object Based / Front: L C R, Side: L R, Back: L R, LFE
    Sampling rate : / 48.0 kHz
    Frame rate : 1 200.000 FPS (40 spf)
    Compression mode : Lossless
    Stream size : 3.19 GiB (12%)
    Title : Original
    Language : English
    Default : No
    Forced : No

    Text
    ID : 4
    Format : UTF-8
    Codec ID : S_TEXT/UTF8
    Codec ID/Info : UTF-8 Plain Text
    Duration : 1 h 33 min
    Bit rate : 50 b/s
    Count of elements : 1130
    Stream size : 34.4 KiB (0%)
    Title : Full
    Language : English
    Default : No
    Forced : No

    Menu
    00:00:00.000 : en:00:00:00.000
    00:08:47.902 : en:00:08:47.902
    00:13:14.335 : en:00:13:14.335
    00:17:42.228 : en:00:17:42.228
    00:25:11.593 : en:00:25:11.593
    00:32:46.256 : en:00:32:46.256
    00:37:17.068 : en:00:37:17.068
    00:44:39.260 : en:00:44:39.260
    00:51:44.101 : en:00:51:44.101
    00:57:57.224 : en:00:57:57.224
    01:03:19.337 : en:01:03:19.337
    01:06:17.140 : en:01:06:17.140
    01:10:05.535 : en:01:10:05.535
    01:16:40.679 : en:01:16:40.679
    01:22:10.092 : en:01:22:10.092
    01:27:31.788 : en:01:27:31.788
7.0 из 10
голосов: 3
/10
/10
616759 15-10-2016, 21:14
Информация
Посетители, находящиеся в группе Гости, не могут оставлять комментарии к данной публикации.