Панель пользователя
Регистрация

Воспользуйтесь социальными сетями для входа на https://freerutor.com

vk odnoklassniki facebook mailru yandex google
Популярное
Счетчик
Голосуй за нас
VIP на сайте
Популярное
Товары интернет магазина
загрузка...

Стартрек: Бесконечность (2016) BDRip 720p | Лицензия

Стартрек: Бесконечность (2016) BDRip 720p | Лицензия
Участники торрент обмена
Сидов Пиров Скачали
0 5 0
Характеристика
Размер Файлы
7.07 GB
Релиз группа
Поделиться раздачей
Фильмы (720,1080,Blu-Ray)
Наименование: Стартрек: Бесконечность
Оригинальное наименование: Star Trek Beyond
Произведено: США
Категория: фантастика, боевик, триллер, приключения
Режиссер постановщик: Джастин Лин
В главных ролях: Крис Пайн, Закари Куинто, Саймон Пегг, Карл Урбан, Зои Салдана, Джон Чо, Антон Ельчин, Идрис Эльба, София Бутелла, Джо Таслим
Краткое описание: Бесстрашная команда крейсера Звездного Флота «Энтерпрайз» исследует неизведанные глубины космоса. Во время этого полного опасностей путешествия герои сталкиваются с таинственной силой, ставящей под угрозу не только их миссию и стабильность Федерации, но и весь миропорядок.
  • Видео данные: MPEG-4 AVC, 6121 Кбит/с, 1280x536
    Аудио данные: Русский (AC3, 6 ch, 640 Кбит/с), английский (DTS, 6 ch, 1509 Кбит/с)
    Перевод: Дублированный [Лицензия]
    Субтитры: Русские (полные, форсированные), английские
    Продолжительность: 02:02:22
  • Стартрек: Бесконечность (2016) BDRip 720p | Лицензия Стартрек: Бесконечность (2016) BDRip 720p | Лицензия Стартрек: Бесконечность (2016) BDRip 720p | Лицензия
  • Общее
    Уникальный идентификатор : 195908989563074853256610929786551566857 (0x9362B2ED9004F673B5A6A2A19F3C8209)
    Полное имя : D:ЗагрузкиStar.Trek.Beyond.2016.BDRip.720p.ExKinoRay.mkv
    Формат : Matroska
    Версия формата : Version 2
    Размер файла : 7,07 Гбайт
    Продолжительность : 2 ч. 2 м.
    Общий поток : 8273 Кбит/сек
    Название фильма : ***селезень***
    Дата кодирования : UTC 2016-11-02 15:42:19
    Программа кодирования : mkvmerge v5.6.0 ('Kenya Kane') built on May 27 2012 16:44:04
    Библиотека кодирования : libebml v1.2.3 + libmatroska v1.3.0
    Attachements : Cover - Star.Trek.Beyond.png

    Видео
    Идентификатор : 1
    Формат : AVC
    Формат/Информация : Advanced Video Codec
    Профиль формата : High@L4.1
    Параметр CABAC формата : Да
    Параметр ReFrames формата : 12 кадров
    Идентификатор кодека : V_MPEG4/ISO/AVC
    Продолжительность : 2 ч. 2 м.
    Битрейт : 5959 Кбит/сек
    Ширина : 1280 пикселей
    Высота : 536 пикселей
    Соотношение сторон : 2,40:1
    Режим частоты кадров : Постоянный
    Частота кадров : 23,976 (24000/1001) кадра/сек
    Цветовое пространство : YUV
    Субдискретизация насыщенности : 4:2:0
    Битовая глубина : 8 бит
    Тип развёртки : Прогрессивная
    Бит/(Пиксели*Кадры) : 0.362
    Размер потока : 5,09 Гбайт (72%)
    Заголовок : ***селезень***
    Библиотека кодирования : x264 core 148 r2721kMod 72d53ab
    Настройки программы : cabac=1 / ref=12 / deblock=1:-3:-3 / analyse=0x3:0x133 / me=umh / subme=10 / psy=1 / fade_compensate=0.00 / psy_rd=1.00:0.00 / mixed_ref=1 / me_range=24 / chroma_me=1 / trellis=2 / 8x8dct=1 / cqm=0 / deadzone=21,11 / fast_pskip=0 / chroma_qp_offset=-2 / threads=56 / lookahead_threads=4 / sliced_threads=0 / nr=0 / decimate=0 / interlaced=0 / bluray_compat=0 / constrained_intra=0 / fgo=0 / bframes=8 / b_pyramid=2 / b_adapt=2 / b_bias=0 / direct=3 / weightb=1 / open_gop=0 / weightp=2 / keyint=250 / keyint_min=23 / scenecut=40 / intra_refresh=0 / rc_lookahead=60 / rc=crf / mbtree=0 / crf=16.5000 / qcomp=0.65 / qpmin=0 / qpmax=69 / qpstep=4 / vbv_maxrate=62500 / vbv_bufsize=78125 / crf_max=0.0 / nal_hrd=none / filler=0 / ip_ratio=1.30 / pb_ratio=1.20 / aq=3:0.75
    Язык : English
    Default : Да
    Forced : Нет
    Цветовой диапазон : Limited
    Коэффициенты матрицы : BT.709

    Аудио #1
    Идентификатор : 2
    Формат : AC-3
    Формат/Информация : Audio Coding 3
    Расширение режима : CM (complete main)
    Параметр Endianness формата : Big
    Идентификатор кодека : A_AC3
    Продолжительность : 2 ч. 2 м.
    Вид битрейта : Постоянный
    Битрейт : 640 Кбит/сек
    Каналы : 6 каналов
    Расположение каналов : Front: L C R, Side: L R, LFE
    Частота : 48,0 КГц
    Частота кадров : 31,250 кадров/сек (1536 spf)
    Метод сжатия : С потерями
    Размер потока : 560 Мбайт (8%)
    Заголовок : Дублированный (Лицензия)
    Язык : Russian
    Default : Да
    Forced : Нет

    Аудио #2
    Идентификатор : 3
    Формат : DTS
    Формат/Информация : Digital Theater Systems
    Режим : 16
    Параметр Endianness формата : Big
    Идентификатор кодека : A_DTS
    Продолжительность : 2 ч. 2 м.
    Вид битрейта : Постоянный
    Битрейт : 1509 Кбит/сек
    Каналы : 6 каналов
    Расположение каналов : Front: L C R, Side: L R, LFE
    Частота : 48,0 КГц
    Частота кадров : 93,750 кадра/сек (512 spf)
    Битовая глубина : 24 бит
    Метод сжатия : С потерями
    Размер потока : 1,29 Гбайт (18%)
    Язык : English
    Default : Нет
    Forced : Нет

    Текст #1
    Идентификатор : 4
    Формат : UTF-8
    Идентификатор кодека : S_TEXT/UTF8
    Идентификатор кодека/Информация : UTF-8 Plain Text
    Заголовок : Forced [iTunes]
    Язык : Russian
    Default : Да
    Forced : Нет

    Текст #2
    Идентификатор : 5
    Формат : UTF-8
    Идентификатор кодека : S_TEXT/UTF8
    Идентификатор кодека/Информация : UTF-8 Plain Text
    Заголовок : Full [iTunes]
    Язык : Russian
    Default : Нет
    Forced : Нет

    Текст #3
    Идентификатор : 6
    Формат : UTF-8
    Идентификатор кодека : S_TEXT/UTF8
    Идентификатор кодека/Информация : UTF-8 Plain Text
    Заголовок : Forced [iTunes]
    Язык : English
    Default : Нет
    Forced : Нет

    Текст #4
    Идентификатор : 7
    Формат : UTF-8
    Идентификатор кодека : S_TEXT/UTF8
    Идентификатор кодека/Информация : UTF-8 Plain Text
    Заголовок : Full
    Язык : English
    Default : Нет
    Forced : Нет

    Текст #5
    Идентификатор : 8
    Формат : UTF-8
    Идентификатор кодека : S_TEXT/UTF8
    Идентификатор кодека/Информация : UTF-8 Plain Text
    Заголовок : SDH
    Язык : English
    Default : Нет
    Forced : Нет

    Меню
    00:00:00.000 : en:Chapter 1
    00:08:25.000 : en:Chapter 2
    00:16:10.000 : en:Chapter 3
    00:32:37.000 : en:Chapter 4
    00:42:15.000 : en:Chapter 5
    00:52:21.000 : en:Chapter 6
    00:59:49.000 : en:Chapter 7
    01:12:04.000 : en:Chapter 8
    01:22:33.000 : en:Chapter 9
    01:33:00.000 : en:Chapter 10
    01:40:32.000 : en:Chapter 11
    01:47:38.000 : en:Chapter 12
    01:52:31.000 : en:Chapter 13
    01:55:40.000 : en:Chapter 14
8.1 из 10
голосов: 8
/10
/10
Swager 2-11-2016, 19:06
Информация
Посетители, находящиеся в группе Гости, не могут оставлять комментарии к данной публикации.