Панель пользователя
Регистрация

Воспользуйтесь социальными сетями для входа на https://freerutor.com

vk odnoklassniki facebook mailru yandex google
Популярное
Счетчик
Голосуй за нас
VIP на сайте
Популярное
Товары интернет магазина
загрузка...

Алиса в Зазеркалье (2016) BDRip 720р | Лицензия | R.G.Resident

Алиса в Зазеркалье (2016) BDRip 720р | Лицензия | R.G.Resident
Участники торрент обмена
Сидов Пиров Скачали
25 1 739
Характеристика
Размер Файлы
8.67 GB
Релиз группа
Поделиться раздачей
Фильмы (720,1080,Blu-Ray)
Наименование: Алиса в Зазеркалье
Оригинальное наименование: Alice Through the Looking Glass
Категория: фэнтези, приключения, семейный
Произведено: США, Великобритания
Режиссер постановщик: Джеймс Бобин
В главных ролях: Миа Васиковска, Джонни Депп, Хелена Бонем Картер, Энн Хэтэуэй, Саша Барон Коэн, Рис Иванс, Мэтт Лукас, Линдси Дункан, Лео Билл, Джеральдин Джеймс, Эндрю Скот, Ричард Армитедж
Краткое описание: На этот раз главной героине предстоит отправиться в путешествие во времени, полное неожиданностей и ярких открытий, чтобы спасти своего друга, Безумного Шляпника.
  • Видео данные: MPEG-4 AVC, 8837 Кбит/с, 1280x690
    Аудио данные: Русский (AC3, 6 ch, 640 Кбит/с), английский (DTS, 6 ch, 1509 Кбит/с)
    Перевод: Дубляж - [Лицензия]
    Продолжительность: 01:52:57
    Субтитры: русские (Forced), русские (Full), английские (Forced), английские (Full)
  • Алиса в Зазеркалье (2016) BDRip 720р | Лицензия | R.G.Resident Алиса в Зазеркалье (2016) BDRip 720р | Лицензия | R.G.Resident Алиса в Зазеркалье (2016) BDRip 720р | Лицензия | R.G.Resident
  • x264 [info]: frame I:1872 Avg QP:12.54 size:283892
    x264 [info]: frame P:41815 Avg QP:15.90 size: 88948
    x264 [info]: frame B:118821 Avg QP:18.79 size: 27232

    General
    Unique ID : 200215698231310181440421464149961062416 (0x96A0240F23AB4BA6A183826638FDB810)
    Complete name : D:\download\Alice.Through.the.Looking.Glass.2016.BDRip 720р by schultz R.G.Resident.mkv
    Format : Matroska
    Format version : Version 4 / Version 2
    File size : 8.67 GiB
    Duration : 1 h 52 min
    Overall bit rate : 11.0 Mb/s
    Encoded date : UTC 2016-10-06 08:38:00
    Writing application : mkvmerge v8.9.0 ('Father Daughter') 64bit
    Writing library : libebml v1.3.3 + libmatroska v1.4.4

    Video
    ID : 1
    Format : AVC
    Format/Info : Advanced Video Codec
    Format profile : High@L4.1
    Format settings, CABAC : Yes
    Format settings, ReFrames : 12 frames
    Codec ID : V_MPEG4/ISO/AVC
    Duration : 1 h 52 min
    Bit rate : 8 837 kb/s
    Width : 1 280 pixels
    Height : 690 pixels
    Display aspect ratio : 1.85:1
    Frame rate mode : Constant
    Frame rate : 23.976 (23976/1000) FPS
    Color space : YUV
    Chroma subsampling : 4:2:0
    Bit depth : 8 bits
    Scan type : Progressive
    Bits/(Pixel*Frame) : 0.417
    Stream size : 6.97 GiB (80%)
    Writing library : x264 core 146 r2538 121396c
    Encoding settings : cabac=1 / ref=12 / deblock=1:-3:-3 / analyse=0x3:0x113 / me=umh / subme=11 / psy=1 / psy_rd=1.00:0.00 / mixed_ref=1 / me_range=48 / chroma_me=1 / trellis=2 / 8x8dct=1 / cqm=0 / deadzone=21,11 / fast_pskip=0 / chroma_qp_offset=-2 / threads=12 / lookahead_threads=3 / sliced_threads=0 / nr=0 / decimate=0 / interlaced=0 / bluray_compat=0 / constrained_intra=0 / bframes=11 / b_pyramid=2 / b_adapt=2 / b_bias=0 / direct=3 / weightb=1 / open_gop=0 / weightp=2 / keyint=240 / keyint_min=23 / scenecut=40 / intra_refresh=0 / rc_lookahead=40 / rc=2pass / mbtree=1 / bitrate=8837 / ratetol=1.0 / qcomp=0.60 / qpmin=0 / qpmax=69 / qpstep=4 / cplxblur=20.0 / qblur=0.5 / vbv_maxrate=50000 / vbv_bufsize=62500 / nal_hrd=none / filler=0 / ip_ratio=1.40 / aq=1:1.00
    Language : English
    Default : Yes
    Forced : No

    Audio #1
    ID : 2
    Format : AC-3
    Format/Info : Audio Coding 3
    Mode extension : CM (complete main)
    Format settings, Endianness : Big
    Codec ID : A_AC3
    Duration : 1 h 52 min
    Bit rate mode : Constant
    Bit rate : 640 kb/s
    Channel(s) : 6 channels
    Channel positions : Front: L C R, Side: L R, LFE
    Sampling rate : 48.0 kHz
    Frame rate : 31.250 FPS (1536 spf)
    Compression mode : Lossy
    Stream size : 517 MiB (6%)
    Language : Russian
    Default : Yes
    Forced : No

    Audio #2
    ID : 3
    Format : DTS
    Format/Info : Digital Theater Systems
    Mode : 16
    Format settings, Endianness : Big
    Codec ID : A_DTS
    Duration : 1 h 52 min
    Bit rate mode : Constant
    Bit rate : 1 509 kb/s
    Channel(s) : 6 channels
    Channel positions : Front: L C R, Side: L R, LFE
    Sampling rate : 48.0 kHz
    Frame rate : 93.750 FPS (512 spf)
    Bit depth : 24 bits
    Compression mode : Lossy
    Stream size : 1.19 GiB (14%)
    Language : English
    Default : No
    Forced : No

    Text #1
    ID : 4
    Format : UTF-8
    Codec ID : S_TEXT/UTF8
    Codec ID/Info : UTF-8 Plain Text
    Duration : 1 h 43 min
    Bit rate : 0 b/s
    Count of elements : 6
    Stream size : 187 Bytes (0%)
    Title : Forced
    Language : Russian
    Default : Yes
    Forced : No

    Text #2
    ID : 5
    Format : UTF-8
    Codec ID : S_TEXT/UTF8
    Codec ID/Info : UTF-8 Plain Text
    Duration : 1 h 51 min
    Bit rate : 68 b/s
    Count of elements : 1391
    Stream size : 55.7 KiB (0%)
    Title : Full
    Language : Russian
    Default : No
    Forced : No

    Text #3
    ID : 6
    Format : UTF-8
    Codec ID : S_TEXT/UTF8
    Codec ID/Info : UTF-8 Plain Text
    Duration : 3 s 4 ms
    Bit rate : 98 b/s
    Count of elements : 2
    Stream size : 37.0 Bytes (0%)
    Title : Forced
    Language : English
    Default : No
    Forced : No

    Text #4
    ID : 7
    Format : UTF-8
    Codec ID : S_TEXT/UTF8
    Codec ID/Info : UTF-8 Plain Text
    Duration : 1 h 51 min
    Bit rate : 40 b/s
    Count of elements : 1370
    Stream size : 33.3 KiB (0%)
    Title : Full
    Language : English
    Default : No
    Forced : No

    Menu
    00:00:00.000 : en:Navigating The Wonder
    00:04:32.000 : en:Return Home
    00:07:24.000 : en:Canceled Plans
    00:12:07.000 : en:Through The Looking Glass
    00:16:39.000 : en:Old Friends
    00:22:47.000 : en:Chronosphere
    00:24:59.000 : en:Time's Castle
    00:30:17.000 : en:The Grand Clock
    00:35:30.000 : en:Arrival Of The Red Queen
    00:41:32.000 : en:Ocean Of Time
    00:45:20.000 : en:Coronation
    00:51:35.000 : en:Warning The Hatter
    00:54:11.000 : en:Tea Party With Time
    00:57:40.000 : en:Tart Trouble
    01:04:18.000 : en:"The Stroke Of Six"
    01:09:18.000 : en:Escape From The Asylum
    01:12:45.000 : en:Horunvendush Day
    01:18:07.000 : en:Red Queen's Lair
    01:23:20.000 : en:Changing The Past
    01:27:34.000 : en:Running Out Of Time
    01:32:16.000 : en:Family Reunion
    01:36:40.000 : en:Goodbyes
    01:40:13.000 : en:Setting Sail
    01:43:14.000 : en:End Credits
10.0 из 10
голосов: 2
/10
/10
schultz 6-10-2016, 17:59
Информация
Посетители, находящиеся в группе Гости, не могут оставлять комментарии к данной публикации.