Панель пользователя
Регистрация

Воспользуйтесь социальными сетями для входа на https://freerutor.com

vk odnoklassniki facebook mailru yandex google
Популярное
Счетчик
Голосуй за нас
VIP на сайте
Популярное
Товары интернет магазина
загрузка...

Ледниковый период: Столкновение неизбежно (2016) BDRip 720р | iTunes | R.G.Resident

Ледниковый период: Столкновение неизбежно (2016) BDRip 720р | iTunes | R.G.Resident
Участники торрент обмена
Сидов Пиров Скачали
5 0 300
Характеристика
Размер Файлы
4.97 GB
Релиз группа
Поделиться раздачей
Мультфильмы
Наименование: Ледниковый период: Столкновение неизбежно
Оригинальное наименование: Ice Age: Collision Course
Категория: мультфильм, фантастика, комедия, приключения, семейный
Произведено: США
Режиссер постановщик: Майк Тёрмайер , Гален Т. Чу
В главных ролях: Ник Офферман, Адам Дивайн, Саймон Пегг, Дженнифер Лопез, Мелисса Рауш, Стефани Беатриз, Джон Легуизамо, Макс Гринфилд, Шонн Уильям Скотт, Дэнис Лири
Краткое описание: Отчаянная погоня за неуловимым желудем катапультирует Скрата прямо в космос, где он случайно запускает целую серию космических событий. Именно они изменят весь мир Ледникового периода и станут реальной угрозой для него. Чтобы спастись, Сид, Мэнни, Диего и остальные звери должны покинуть свои дома, отправиться в забавное и захватывающее приключение в экзотические новые земли и встретиться со множеством красочных новых персонажей.
  • Видео данные: MPEG-4 AVC, 5627 Кбит/с, 1280x534
    Аудио данные: Русский (AC3, 6 ch, 384 Кбит/с), английский (DTS, 6 ch, 1509 Кбит/с)
    Перевод: Дубляж - [iTunes]
    Продолжительность: 01:34:35
    Субтитры: русские (Forced [iTunes]), русские (Full [iTunes]), английские (Full)
  • Ледниковый период: Столкновение неизбежно (2016) BDRip 720р | iTunes | R.G.Resident Ледниковый период: Столкновение неизбежно (2016) BDRip 720р | iTunes | R.G.Resident Ледниковый период: Столкновение неизбежно (2016) BDRip 720р | iTunes | R.G.Resident
  • x264 [info]: frame I:1168 Avg QP:10.92 size:210899
    x264 [info]: frame P:39667 Avg QP:14.95 size: 57498
    x264 [info]: frame B:95175 Avg QP:19.10 size: 15367

    General
    Unique ID : 249919933835096067460383882664099977402 (0xBC04D413CE8EE97DA65656D028AC18BA)
    Complete name : D:downloadIce.Age.Collision.Course.2016.BDRip 720р by schultz R.G.Resident.mkv
    Format : Matroska
    Format version : Version 4 / Version 2
    File size : 4.97 GiB
    Duration : 1 h 34 min
    Overall bit rate : 7 517 kb/s
    Encoded date : UTC 2016-10-05 02:58:15
    Writing application : mkvmerge v8.9.0 ('Father Daughter') 64bit
    Writing library : libebml v1.3.3 + libmatroska v1.4.4

    Video
    ID : 1
    Format : AVC
    Format/Info : Advanced Video Codec
    Format profile : High@L4.1
    Format settings, CABAC : Yes
    Format settings, ReFrames : 12 frames
    Codec ID : V_MPEG4/ISO/AVC
    Duration : 1 h 34 min
    Bit rate : 5 627 kb/s
    Width : 1 280 pixels
    Height : 534 pixels
    Display aspect ratio : 2.40:1
    Frame rate mode : Constant
    Frame rate : 23.976 (23976/1000) FPS
    Color space : YUV
    Chroma subsampling : 4:2:0
    Bit depth : 8 bits
    Scan type : Progressive
    Bits/(Pixel*Frame) : 0.343
    Stream size : 3.72 GiB (75%)
    Writing library : x264 core 146 r2538 121396c
    Encoding settings : cabac=1 / ref=12 / deblock=1:-3:-3 / analyse=0x3:0x113 / me=umh / subme=11 / psy=1 / psy_rd=1.00:0.00 / mixed_ref=1 / me_range=48 / chroma_me=1 / trellis=2 / 8x8dct=1 / cqm=0 / deadzone=21,11 / fast_pskip=0 / chroma_qp_offset=-2 / threads=12 / lookahead_threads=3 / sliced_threads=0 / nr=0 / decimate=0 / interlaced=0 / bluray_compat=0 / constrained_intra=0 / bframes=11 / b_pyramid=2 / b_adapt=2 / b_bias=0 / direct=3 / weightb=1 / open_gop=0 / weightp=2 / keyint=240 / keyint_min=23 / scenecut=40 / intra_refresh=0 / rc_lookahead=40 / rc=2pass / mbtree=1 / bitrate=5627 / ratetol=1.0 / qcomp=0.60 / qpmin=0 / qpmax=69 / qpstep=4 / cplxblur=20.0 / qblur=0.5 / vbv_maxrate=50000 / vbv_bufsize=62500 / nal_hrd=none / filler=0 / ip_ratio=1.40 / aq=1:1.00
    Language : English
    Default : Yes
    Forced : No

    Audio #1
    ID : 2
    Format : AC-3
    Format/Info : Audio Coding 3
    Mode extension : CM (complete main)
    Format settings, Endianness : Big
    Codec ID : A_AC3
    Duration : 1 h 34 min
    Bit rate mode : Constant
    Bit rate : 384 kb/s
    Channel(s) : 6 channels
    Channel positions : Front: L C R, Side: L R, LFE
    Sampling rate : 48.0 kHz
    Frame rate : 31.250 FPS (1536 spf)
    Compression mode : Lossy
    Delay relative to video : 2 s 0 ms
    Stream size : 260 MiB (5%)
    Language : Russian
    Default : Yes
    Forced : No

    Audio #2
    ID : 3
    Format : DTS
    Format/Info : Digital Theater Systems
    Format profile : ES Matrix / Core
    Mode : 16
    Format settings, Endianness : Big
    Codec ID : A_DTS
    Duration : 1 h 34 min
    Bit rate mode : Constant
    Bit rate : 1 509 kb/s
    Channel(s) : 7 channels / 6 channels
    Channel positions : Front: L C R, Side: L R, Back: C, LFE / Front: L C R, Side: L R, LFE
    Sampling rate : 48.0 kHz
    Frame rate : 93.750 FPS (512 spf)
    Bit depth : 24 bits
    Compression mode : Lossy
    Stream size : 1 020 MiB (20%)
    Language : English
    Default : No
    Forced : No

    Text #1
    ID : 4
    Format : UTF-8
    Codec ID : S_TEXT/UTF8
    Codec ID/Info : UTF-8 Plain Text
    Duration : 24 min
    Bit rate : 0 b/s
    Count of elements : 2
    Stream size : 109 Bytes (0%)
    Title : Forced [iTunes]
    Language : Russian
    Default : Yes
    Forced : No

    Text #2
    ID : 5
    Format : UTF-8
    Codec ID : S_TEXT/UTF8
    Codec ID/Info : UTF-8 Plain Text
    Duration : 1 h 23 min
    Bit rate : 99 b/s
    Count of elements : 1221
    Stream size : 61.1 KiB (0%)
    Title : Full [iTunes]
    Language : Russian
    Default : No
    Forced : No

    Text #3
    ID : 6
    Format : UTF-8
    Codec ID : S_TEXT/UTF8
    Codec ID/Info : UTF-8 Plain Text
    Duration : 1 h 23 min
    Bit rate : 60 b/s
    Count of elements : 1221
    Stream size : 36.9 KiB (0%)
    Title : Full
    Language : English
    Default : No
    Forced : No

    Menu
    00:00:00.000 : en:1
    00:03:07.103 : en:2
    00:05:22.321 : en:3
    00:09:04.084 : en:4
    00:13:20.298 : en:5
    00:18:03.748 : en:6
    00:20:48.579 : en:7
    00:23:08.302 : en:8
    00:27:27.894 : en:9
    00:30:13.976 : en:10
    00:32:52.342 : en:11
    00:36:11.582 : en:12
    00:39:31.448 : en:13
    00:42:56.694 : en:14
    00:47:33.011 : en:15
    00:51:09.727 : en:16
    00:55:48.756 : en:17
    01:01:07.449 : en:18
    01:05:04.394 : en:19
    01:09:37.291 : en:20
    01:14:34.880 : en:21
    01:17:39.522 : en:22
    01:21:41.055 : en:23
    01:24:44.488 : en:24
10.0 из 10
голосов: 3
/10
/10
schultz 5-10-2016, 06:51
Информация
Посетители, находящиеся в группе Гости, не могут оставлять комментарии к данной публикации.