Панель пользователя
Регистрация

Воспользуйтесь социальными сетями для входа на https://freerutor.com

vk odnoklassniki facebook mailru yandex google
Популярное
Счетчик
Голосуй за нас
VIP на сайте
Популярное
Товары интернет магазина
загрузка...

Гудгора. Концерт Вячеслава Бутусова (2016) HDTV 1080i

Гудгора. Концерт Вячеслава Бутусова (2016) HDTV 1080i
Участники торрент обмена
Сидов Пиров Скачали
10 1 320
Характеристика
Размер Файлы
5.28 GB
Поделиться раздачей
ТВ передачи
Наименование: Гудгора. Концерт Вячеслава Бутусова
Категория: Концерт
Произведено: Россия, Первый канал HD
Исполнитель: Вячеслав Бутусов, Ю-Питер
Краткое описание: В этот вечер на "Первом канале" легенды рока - Вячеслав Бутусов и группа "Ю-Питер"! В программу концерта наряду с композициями альбома "Гудгора" и лучшими песнями группы, также вошли избранные хиты легендарных Nautilus Pompilius и "Кино".
  • Видео данные: MPEG-4 AVC, 7884 Кбит/с, 1920x1080, 25 кадр/с
    Аудио данные: AC3, 2 ch, 384 Кбит/с, MP2, 2 ch, 192 Кбит/с
    Перевод: Оригинал
    Продолжительность: 01:24:48
  • Гудгора. Концерт Вячеслава Бутусова (2016) HDTV 1080i Гудгора. Концерт Вячеслава Бутусова (2016) HDTV 1080i Гудгора. Концерт Вячеслава Бутусова (2016) HDTV 1080i
  • General
    ID : 1 (0x1)
    Complete name : Gudgora.Koncert.Vyacheslava.Butusova.HDTV.1080i.ts
    Format : MPEG-TS
    File size : 5.28 GiB
    Duration : 1h 24mn
    Overall bit rate mode : Variable
    Overall bit rate : 8 906 Kbps

    Video
    ID : 2931 (0xB73)
    Menu ID : 1079 (0x437)
    Format : AVC
    Format/Info : Advanced Video Codec
    Format profile : High@L4
    Format settings, CABAC : Yes
    Format settings, ReFrames : 4 frames
    Codec ID : 27
    Duration : 1h 24mn
    Bit rate : 7 884 Kbps
    Width : 1 920 pixels
    Height : 1 080 pixels
    Display aspect ratio : 16:9
    Frame rate : 25.000 fps
    Color space : YUV
    Chroma subsampling : 4:2:0
    Bit depth : 8 bits
    Scan type : MBAFF
    Scan order : Top Field First
    Bits/(Pixel*Frame) : 0.152
    Stream size : 4.67 GiB (89%)

    Audio #1
    ID : 2932 (0xB74)
    Menu ID : 1079 (0x437)
    Format : MPEG Audio
    Format version : Version 1
    Format profile : Layer 2
    Codec ID : 3
    Duration : 1h 24mn
    Bit rate mode : Constant
    Bit rate : 192 Kbps
    Channel(s) : 2 channels
    Sampling rate : 48.0 KHz
    Compression mode : Lossy
    Stream size : 116 MiB (2%)
    Language : Russian

    Audio #2
    ID : 2933 (0xB75)
    Menu ID : 1079 (0x437)
    Format : AC-3
    Format/Info : Audio Coding 3
    Mode extension : CM (complete main)
    Format settings, Endianness : Big
    Codec ID : 6
    Duration : 1h 24mn
    Bit rate mode : Constant
    Bit rate : 384 Kbps
    Channel(s) : 6 channels
    Channel positions : Front: L C R, Side: L R, LFE
    Sampling rate : 48.0 KHz
    Compression mode : Lossy
    Stream size : 233 MiB (4%)
    Language : Russian
10.0 из 10
голосов: 6
616759 1-10-2016, 08:49
Информация
Посетители, находящиеся в группе Гости, не могут оставлять комментарии к данной публикации.