Панель пользователя
Регистрация

Воспользуйтесь социальными сетями для входа на https://freerutor.com

vk odnoklassniki facebook mailru yandex google
Популярное
Счетчик
Голосуй за нас
VIP на сайте
Популярное
Товары интернет магазина
загрузка...

Кровный отец (2016) BDRip 1080p

Кровный отец (2016) BDRip 1080p
Участники торрент обмена
Сидов Пиров Скачали
5 0 1737
Характеристика
Размер Файлы
9.34 GB
Релиз группа
Поделиться раздачей
Фильмы (720,1080,Blu-Ray)
Наименование: Кровный отец
Оригинальное наименование: Blood Father
Категория: Боевик, триллер
Произведено: Франция, Why Not Productions
Режиссер постановщик: Жан-Франсуа Рише
В главных ролях: Мэл Гибсон, Эрин Мориарти, Диего Луна, Майкл Паркс, Уильям Х. Мэйси, Мигель Сандовал, Дейл Дикки, Ричард Кебрал, Дэниэл Монкада, Райан Дорси
Краткое описание: Бывший заключенный, раньше не участвовавший в воспитании дочери, узнав о том, что его дочь преследуют наркоторговцы и жаждут ее смерти, решил помочь ей с проблемами.
  • Видео данные: MPEG-4 AVC, 13.2 Mбит/с, 1920x804
    Аудио данные: Русский (DTS, 6 ch, 1510 Кбит/с), (AC3, 6 ch, 640 Кбит/с), английский (DTS, 6 ch, 1510 Кбит/с)
    Перевод: Профессиональный многоголосый [Студия "Paradox" & Omskbird records]
    Продолжительность: 01:28:12
    Без рекламы.
  • Кровный отец (2016) BDRip 1080p Кровный отец (2016) BDRip 1080p Кровный отец (2016) BDRip 1080p
  • General
    Unique ID : 204225399833358355082015404861625836318 (0x99A4619C81B45C3583F3A8B4FCEDA31E)
    Complete name : H:\Video\Blood.Father.2016.BDRip.1080p.ExKinoRay.mkv
    Format : Matroska
    Format version : Version 4 / Version 2
    File size : 9.34 GiB
    Duration : 1 h 28 min
    Overall bit rate : 15.2 Mb/s
    Movie name : ***селезень***
    Encoded date : UTC 2016-09-30 20:06:06
    Writing application : mkvmerge v8.3.0 ('Over the Horizon') 64bit
    Writing library : libebml v1.3.1 + libmatroska v1.4.2

    Video
    ID : 1
    Format : AVC
    Format/Info : Advanced Video Codec
    Format profile : High@L4.1
    Format settings, CABAC : Yes
    Format settings, ReFrames : 4 frames
    Codec ID : V_MPEG4/ISO/AVC
    Duration : 1 h 28 min
    Bit rate : 13.2 Mb/s
    Width : 1 920 pixels
    Height : 804 pixels
    Display aspect ratio : 2.40:1
    Frame rate mode : Constant
    Frame rate : 23.976 (24000/1001) FPS
    Color space : YUV
    Chroma subsampling : 4:2:0
    Bit depth : 8 bits
    Scan type : Progressive
    Bits/(Pixel*Frame) : 0.357
    Stream size : 8.13 GiB (87%)
    Title : ***селезень***
    Writing library : x264 core 148 r2705 3f5ed56
    Encoding settings : cabac=1 / ref=5 / deblock=1:-3:-3 / analyse=0x3:0x133 / me=umh / subme=11 / psy=1 / psy_rd=1.00:0.00 / mixed_ref=1 / me_range=64 / chroma_me=1 / trellis=2 / 8x8dct=1 / cqm=0 / deadzone=21,11 / fast_pskip=0 / chroma_qp_offset=-2 / threads=12 / lookahead_threads=2 / sliced_threads=0 / nr=0 / decimate=0 / interlaced=0 / bluray_compat=0 / constrained_intra=0 / bframes=8 / b_pyramid=1 / b_adapt=2 / b_bias=0 / direct=3 / weightb=1 / open_gop=0 / weightp=2 / keyint=240 / keyint_min=2 / scenecut=40 / intra_refresh=0 / rc=2pass / mbtree=0 / bitrate=13200 / ratetol=1.0 / qcomp=0.70 / qpmin=0 / qpmax=69 / qpstep=4 / cplxblur=20.0 / qblur=0.5 / ip_ratio=1.20 / pb_ratio=1.20 / aq=3:0.80
    Language : English
    Default : Yes
    Forced : No

    Audio #1
    ID : 2
    Format : AC-3
    Format/Info : Audio Coding 3
    Mode extension : CM (complete main)
    Format settings, Endianness : Big
    Codec ID : A_AC3
    Duration : 1 h 28 min
    Bit rate mode : Constant
    Bit rate : 448 kb/s
    Channel(s) : 6 channels
    Channel positions : Front: L C R, Side: L R, LFE
    Sampling rate : 48.0 kHz
    Frame rate : 31.250 FPS (1536 spf)
    Compression mode : Lossy
    Stream size : 283 MiB (3%)
    Title : MVO ["Paradox" & Omskbird records]
    Language : Russian
    Default : Yes
    Forced : No

    Audio #2
    ID : 3
    Format : DTS
    Format/Info : Digital Theater Systems
    Mode : 16
    Format settings, Endianness : Big
    Codec ID : A_DTS
    Duration : 1 h 28 min
    Bit rate mode : Constant
    Bit rate : 1 509 kb/s
    Channel(s) : 6 channels
    Channel positions : Front: L C R, Side: L R, LFE
    Sampling rate : 48.0 kHz
    Frame rate : 93.750 FPS (512 spf)
    Bit depth : 24 bits
    Compression mode : Lossy
    Stream size : 952 MiB (10%)
    Title : Original
    Language : English
    Default : No
    Forced : No

    Menu
    00:00:00.000 : en:Chapter 01
    00:08:23.211 : en:Chapter 02
    00:15:56.163 : en:Chapter 03
    00:24:36.516 : en:Chapter 04
    00:30:10.767 : en:Chapter 05
    00:37:15.191 : en:Chapter 06
    00:49:58.787 : en:Chapter 07
    00:56:37.435 : en:Chapter 08
    01:03:54.956 : en:Chapter 09
    01:11:52.683 : en:Chapter 10
    01:20:01.546 : en:Chapter 11
    01:26:27.265 : en:Chapter 12
10.0 из 10
голосов: 4
/10
/10
616759 1-10-2016, 01:05

AlexGAV | 3-10-2016, 17:20 | Статус: Оффлайн

Звук страшно разсинхронизирован
Информация
Посетители, находящиеся в группе Гости, не могут оставлять комментарии к данной публикации.