Панель пользователя
Регистрация

Воспользуйтесь социальными сетями для входа на https://freerutor.com

vk odnoklassniki facebook mailru yandex google
Популярное
Счетчик
Голосуй за нас
VIP на сайте
Популярное
Товары интернет магазина
загрузка...

Афера под прикрытием (2016) BDRip 720p | iTunes

Афера под прикрытием (2016) BDRip 720p | iTunes
Участники торрент обмена
Сидов Пиров Скачали
278 19 10278
Характеристика
Размер Файлы
7.82 GB
Поделиться раздачей
Фильмы (720,1080,Blu-Ray)
Наименование: Афера под прикрытием
Оригинальное наименование: The Infiltrator
Произведено: Великобритания
Категория: триллер, драма, криминал, биография
Режиссер постановщик: Брэд Фурман
В главных ролях: Брайан Крэнстон, Лиэнн Бест, Дэниэл Мейс, Том Вон-Лолор, Ниал Хэйес, Лара Дэкаро, Джульетт Обри, Олимпия Дукакис, Эми Райан, Джон Легуизамо
Краткое описание: Федеральный агент Боб Мейзур, специалист по внедрению в преступные группировки, ставит себе целью раскрыть схему отмывания денег наркокартеля Пабло Эскобара. В одной команде со вспыльчивым оперативником Эмиром Абреу, а также начинающим агентом Кэти Эртс, исполняющей роль подставной невесты Боба, ему предстоит провернуть самую рискованную операцию под прикрытием в истории.
  • Видео данные: MPEG-4 AVC, 7800 Кбит/с, 1280x536
    Аудио данные: Русский (AC3, 6 ch, 384 Кбит/с), английский (AC3, 6 ch, 640 Кбит/с)
    Перевод: Дублированный [iTunes]
    Субтитры: Английские
    Продолжительность: 02:07:08
  • Афера под прикрытием (2016) BDRip 720p | iTunes Афера под прикрытием (2016) BDRip 720p | iTunes Афера под прикрытием (2016) BDRip 720p | iTunes
  • Общее
    Уникальный идентификатор : 242861134339045157571099024878448465895 (0xB6B55A6471768472B7BAD0761904D7E7)
    Полное имя : D:\загрузки\The.Infiltrator.2016.D.BDRip.720p.mkv
    Формат : Matroska
    Версия формата : Version 2
    Размер файла : 7,82 Гбайт
    Продолжительность : 2 ч. 7 м.
    Общий поток : 8806 Кбит/сек
    Дата кодирования : UTC 2016-11-02 20:44:56
    Программа кодирования : mkvmerge v7.8.0 ('River Man') 32bit built on Apr 3 2015 12:11:22
    Библиотека кодирования : libebml v1.3.1 + libmatroska v1.4.2

    Видео
    Идентификатор : 1
    Формат : AVC
    Формат/Информация : Advanced Video Codec
    Профиль формата : High@L5.1
    Параметр CABAC формата : Да
    Параметр ReFrames формата : 12 кадров
    Идентификатор кодека : V_MPEG4/ISO/AVC
    Продолжительность : 2 ч. 7 м.
    Битрейт : 7800 Кбит/сек
    Ширина : 1280 пикселей
    Высота : 536 пикселей
    Соотношение сторон : 2,40:1
    Режим частоты кадров : Постоянный
    Частота кадров : 23,976 кадра/сек
    Цветовое пространство : YUV
    Субдискретизация насыщенности : 4:2:0
    Битовая глубина : 8 бит
    Тип развёртки : Прогрессивная
    Бит/(Пиксели*Кадры) : 0.474
    Размер потока : 6,76 Гбайт (86%)
    Библиотека кодирования : x264 core 142 r2431+42 c69a006 tMod [8-bit@all X86_64]
    Настройки программы : cabac=1 / ref=12 / deblock=1:-3:-3 / analyse=0x3:0x113 / me=umh / subme=10 / psy=1 / fade_compensate=0.00 / psy_rd=1.05:1.05 / mixed_ref=1 / me_range=48 / chroma_me=1 / trellis=2 / 8x8dct=1 / cqm=0 / deadzone=21,11 / fast_pskip=0 / chroma_qp_offset=-4 / threads=16 / lookahead_threads=4 / sliced_threads=0 / nr=0 / decimate=0 / interlaced=0 / bluray_compat=0 / constrained_intra=0 / fgo=0 / bframes=10 / b_pyramid=2 / b_adapt=2 / b_bias=0 / direct=3 / weightb=1 / open_gop=0 / weightp=2 / keyint=240 / keyint_min=23 / scenecut=40 / intra_refresh=0 / rc_lookahead=120 / rc=2pass / mbtree=0 / bitrate=7800 / ratetol=1.0 / qcomp=0.90 / qpmin=0:0:0 / qpmax=69:69:69 / qpstep=4 / cplxblur=20.0 / qblur=0.5 / vbv_maxrate=300000 / vbv_bufsize=300000 / nal_hrd=none / filler=0 / ip_ratio=1.30 / pb_ratio=1.40 / aq=2:0.90 / aq-sensitivity=10.00 / aq-factor=1.00:1.00:1.00 / aq2=0 / aq3=0
    Язык : English
    Default : Да
    Forced : Нет
    Основные цвета : BT.709
    Характеристики трансфера : BT.709
    Коэффициенты матрицы : BT.709

    Аудио #1
    Идентификатор : 2
    Формат : AC-3
    Формат/Информация : Audio Coding 3
    Расширение режима : CM (complete main)
    Параметр Endianness формата : Big
    Идентификатор кодека : A_AC3
    Продолжительность : 2 ч. 7 м.
    Вид битрейта : Постоянный
    Битрейт : 384 Кбит/сек
    Каналы : 6 каналов
    Расположение каналов : Front: L C R, Side: L R, LFE
    Частота : 48,0 КГц
    Битовая глубина : 16 бит
    Метод сжатия : С потерями
    Размер потока : 349 Мбайт (4%)
    Заголовок : iTunes
    Язык : Russian
    Default : Да
    Forced : Нет

    Аудио #2
    Идентификатор : 3
    Формат : AC-3
    Формат/Информация : Audio Coding 3
    Расширение режима : CM (complete main)
    Параметр Endianness формата : Big
    Идентификатор кодека : A_AC3
    Продолжительность : 2 ч. 7 м.
    Вид битрейта : Постоянный
    Битрейт : 640 Кбит/сек
    Каналы : 6 каналов
    Расположение каналов : Front: L C R, Side: L R, LFE
    Частота : 48,0 КГц
    Битовая глубина : 16 бит
    Метод сжатия : С потерями
    Размер потока : 582 Мбайт (7%)
    Заголовок : Original
    Язык : English
    Default : Нет
    Forced : Нет

    Текст
    Идентификатор : 4
    Формат : UTF-8
    Идентификатор кодека : S_TEXT/UTF8
    Идентификатор кодека/Информация : UTF-8 Plain Text
    Заголовок : Full
    Язык : English
    Default : Нет
    Forced : Нет

    Меню
    00:00:00.000 : en:Chapter 01
    00:09:01.666 : en:Chapter 02
    00:17:00.686 : en:Chapter 03
    00:24:48.653 : en:Chapter 04
    00:28:36.881 : en:Chapter 05
    00:35:12.193 : en:Chapter 06
    00:42:31.340 : en:Chapter 07
    00:51:42.724 : en:Chapter 08
    00:57:40.832 : en:Chapter 09
    01:02:47.805 : en:Chapter 10
    01:07:41.474 : en:Chapter 11
    01:17:04.661 : en:Chapter 12
    01:24:18.553 : en:Chapter 13
    01:31:43.831 : en:Chapter 14
    01:40:58.969 : en:Chapter 15
    01:47:44.249 : en:Chapter 16
    01:52:50.221 : en:Chapter 17
    01:58:14.128 : en:Chapter 18
    02:07:08.370 : en:Chapter 19
7.3 из 10
голосов: 7
/10
/10
foster720p 2-11-2016, 23:57
Информация
Посетители, находящиеся в группе Гости, не могут оставлять комментарии к данной публикации.