Панель пользователя
Регистрация

Воспользуйтесь социальными сетями для входа на https://freerutor.com

vk odnoklassniki facebook mailru yandex google
Популярное
Счетчик
Голосуй за нас
VIP на сайте
Популярное
Товары интернет магазина
загрузка...

Стартрек: Бесконечность (2016) BDRip 1080p | Лицензия

Стартрек: Бесконечность (2016) BDRip 1080p | Лицензия
Участники торрент обмена
Сидов Пиров Скачали
11 0 1246
Характеристика
Размер Файлы
10.26 GB
Релиз группа
Поделиться раздачей
Фильмы (720,1080,Blu-Ray)
Наименование: Стартрек: Бесконечность
Оригинальное наименование: Star Trek Beyond
Категория: Фантастика, боевик, триллер, приключения
Произведено: США, Bad Robot, Paramount Pictures, Perfect Storm Entertainment, Skydance Productions, Sneaky Shark
Режиссер постановщик: Джастин Лин
В главных ролях: Крис Пайн, Закари Куинто, Саймон Пегг, Карл Урбан, Зои Салдана, Джон Чо, Антон Ельчин, Идрис Эльба, София Бутелла, Джо Таслим
Краткое описание: События развиваются спустя 2 года после начала пятилетней миссии. Экипаж звездного корабля «Энтерпрайз», во главе с капитаном Джеймсом Т. Кирком, были атакованы могущественной и опасной волной неизвестных пришельцев, которые уничтожают корабль, оставляя их без всего на новой неизведанной планете, где они оказываются в конфликте с новым безжалостным врагом.
  • Видео данные: MPEG-4 AVC, 9853 Кбит/с, 1920x804, 23.976 кадр/с
    Аудио данные: Русский (AC3, 6 ch, 640 Кбит/с), английский (DTS, 6 ch, 1509 Кбит/с)
    Перевод: Дублированный [лицензия]
    Субтитры: Русские (полные, форсированные), английские
    Продолжительность: 02:02:22
  • Стартрек: Бесконечность (2016) BDRip 1080p | Лицензия Стартрек: Бесконечность (2016) BDRip 1080p | Лицензия Стартрек: Бесконечность (2016) BDRip 1080p | Лицензия
  • Общее
    Уникальный идентификатор : 190815675020180715975742377663697541542 (0x8F8DC32207488BCBB11FF1A0A89C59A6)
    Полное имя : D:ЗагрузкиStar.Trek.Beyond.2016.x264.BDRip.(1080p).ExKinoRay.mkv
    Формат : Matroska
    Версия формата : Version 2
    Размер файла : 10,3 Гбайт
    Продолжительность : 2 ч. 2 м.
    Общий поток : 12,0 Мбит/сек
    Название фильма : Стартрек: Бесконечность.2016.Rip by: ollan
    Дата кодирования : UTC 2016-11-02 15:09:52
    Программа кодирования : mkvmerge v5.6.0 ('Kenya Kane') built on May 27 2012 16:44:04
    Библиотека кодирования : libebml v1.2.3 + libmatroska v1.3.0
    Attachements : Cover - Star.Trek.Beyond..png / Cover - Star.Trek.Beyond.png

    Видео
    Идентификатор : 1
    Формат : AVC
    Формат/Информация : Advanced Video Codec
    Профиль формата : High@L4.1
    Параметр CABAC формата : Да
    Параметр ReFrames формата : 5 кадров
    Идентификатор кодека : V_MPEG4/ISO/AVC
    Продолжительность : 2 ч. 2 м.
    Битрейт : 9853 Кбит/сек
    Ширина : 1920 пикселей
    Высота : 804 пикселя
    Соотношение сторон : 2,40:1
    Режим частоты кадров : Постоянный
    Частота кадров : 23,976 (24000/1001) кадра/сек
    Цветовое пространство : YUV
    Субдискретизация насыщенности : 4:2:0
    Битовая глубина : 8 бит
    Тип развёртки : Прогрессивная
    Бит/(Пиксели*Кадры) : 0.266
    Размер потока : 8,22 Гбайт (80%)
    Библиотека кодирования : x264 core 146 r2538 121396c
    Настройки программы : cabac=1 / ref=5 / deblock=1:-3:-3 / analyse=0x3:0x133 / me=umh / subme=11 / psy=1 / psy_rd=1.01:0.07 / mixed_ref=1 / me_range=48 / chroma_me=1 / trellis=2 / 8x8dct=1 / cqm=0 / deadzone=21,11 / fast_pskip=0 / chroma_qp_offset=-3 / threads=12 / lookahead_threads=3 / sliced_threads=0 / nr=0 / decimate=0 / interlaced=0 / bluray_compat=0 / constrained_intra=0 / bframes=10 / b_pyramid=2 / b_adapt=2 / b_bias=0 / direct=3 / weightb=1 / open_gop=0 / weightp=2 / keyint=240 / keyint_min=23 / scenecut=40 / intra_refresh=0 / rc_lookahead=40 / rc=2pass / mbtree=0 / bitrate=9853 / ratetol=1.0 / qcomp=0.60 / qpmin=0 / qpmax=69 / qpstep=4 / cplxblur=20.0 / qblur=0.5 / vbv_maxrate=50000 / vbv_bufsize=62500 / nal_hrd=none / filler=0 / ip_ratio=1.40 / pb_ratio=1.30 / aq=1:1.00
    Язык : English
    Default : Да
    Forced : Нет

    Аудио #1
    Идентификатор : 2
    Формат : AC-3
    Формат/Информация : Audio Coding 3
    Расширение режима : CM (complete main)
    Параметр Endianness формата : Big
    Идентификатор кодека : A_AC3
    Продолжительность : 2 ч. 2 м.
    Вид битрейта : Постоянный
    Битрейт : 640 Кбит/сек
    Каналы : 6 каналов
    Расположение каналов : Front: L C R, Side: L R, LFE
    Частота : 48,0 КГц
    Частота кадров : 31,250 кадров/сек (1536 spf)
    Метод сжатия : С потерями
    Размер потока : 560 Мбайт (5%)
    Заголовок : Дублированный (Лицензия)
    Язык : Russian
    Default : Да
    Forced : Нет

    Аудио #2
    Идентификатор : 3
    Формат : DTS
    Формат/Информация : Digital Theater Systems
    Режим : 16
    Параметр Endianness формата : Big
    Идентификатор кодека : A_DTS
    Продолжительность : 2 ч. 2 м.
    Вид битрейта : Постоянный
    Битрейт : 1509 Кбит/сек
    Каналы : 6 каналов
    Расположение каналов : Front: L C R, Side: L R, LFE
    Частота : 48,0 КГц
    Частота кадров : 93,750 кадра/сек (512 spf)
    Битовая глубина : 24 бит
    Метод сжатия : С потерями
    Размер потока : 1,29 Гбайт (13%)
    Язык : English
    Default : Нет
    Forced : Нет

    Текст #1
    Идентификатор : 4
    Формат : UTF-8
    Идентификатор кодека : S_TEXT/UTF8
    Идентификатор кодека/Информация : UTF-8 Plain Text
    Заголовок : Forced
    Язык : Russian
    Default : Да
    Forced : Нет

    Текст #2
    Идентификатор : 5
    Формат : UTF-8
    Идентификатор кодека : S_TEXT/UTF8
    Идентификатор кодека/Информация : UTF-8 Plain Text
    Заголовок : Full
    Язык : Russian
    Default : Нет
    Forced : Нет

    Текст #3
    Идентификатор : 6
    Формат : UTF-8
    Идентификатор кодека : S_TEXT/UTF8
    Идентификатор кодека/Информация : UTF-8 Plain Text
    Заголовок : Forced
    Язык : English
    Default : Нет
    Forced : Нет

    Текст #4
    Идентификатор : 7
    Формат : UTF-8
    Идентификатор кодека : S_TEXT/UTF8
    Идентификатор кодека/Информация : UTF-8 Plain Text
    Заголовок : Full
    Язык : English
    Default : Нет
    Forced : Нет

    Меню
    00:00:00.000 : en:Chapter 01
    00:08:26.547 : en:Chapter 02
    00:16:11.636 : en:Chapter 03
    00:32:38.288 : en:Chapter 04
    00:42:16.367 : en:Chapter 05
    00:52:22.264 : en:Chapter 06
    00:59:50.628 : en:Chapter 07
    01:12:05.529 : en:Chapter 08
    01:22:34.448 : en:Chapter 09
    01:33:00.948 : en:Chapter 10
    01:40:33.318 : en:Chapter 11
    01:47:38.993 : en:Chapter 12
    01:52:32.662 : en:Chapter 13
    01:55:41.350 : en:Chapter 14
    02:02:21.917 : en:Chapter 15
8.8 из 10
голосов: 21
/10
/10
karta 2-11-2016, 18:23

Станислав Егоров | 18-10-2016, 09:08 | Статус: Оффлайн

да уже 85 процентов.

swatt44 | 18-10-2016, 08:33 | Статус: Оффлайн

похоже что нет

Snowden | 18-10-2016, 07:41 | Статус: Оффлайн

Ну раздавать будем или нет?

swatt44 | 18-10-2016, 06:57 | Статус: Оффлайн

Позырим smile

Molodit | 29-09-2016, 14:01 | Статус: Оффлайн

Знаете ли Вы, что...

Это первый фильм франшизы «Звёздный путь», который снимали в основном не в Голливуде, а в Ванкувере (провинция Британская Колумбия, Канада). Там в студии были с нуля воссозданы все декорации, включая внутреннее убранство звездолёта «Энтерпрайз».
Информация
Посетители, находящиеся в группе Гости, не могут оставлять комментарии к данной публикации.