Панель пользователя
Регистрация

Воспользуйтесь социальными сетями для входа на https://freerutor.com

vk odnoklassniki facebook mailru yandex google
Популярное
Счетчик
Голосуй за нас
VIP на сайте
Популярное
Товары интернет магазина
загрузка...

День независимости: Возрождение (2016) BDRip 1080p | Лицензия

День независимости: Возрождение (2016) BDRip 1080p | Лицензия
Участники торрент обмена
Сидов Пиров Скачали
22 2 2758
Характеристика
Размер Файлы
14.56 GB
Релиз группа
Поделиться раздачей
Фильмы (720,1080,Blu-Ray)
Наименование: День независимости: Возрождение
Оригинальное наименование: Independence Day: Resurgence
Категория: фантастика, боевик, приключения
Произведено: США, 20th Century Fox Film Corporation
Режиссер постановщик: Роланд Эммерих
В главных ролях: Лиам Хемсворт, Джефф Голдблюм, Джесси Ашер, Билл Пуллман, Майка Монро, Села Уорд, Уильям Фихтнер, Джадд Хёрш, Брент Спайнер, Патрик Ст. Эсприт
Краткое описание: Используя инопланетные технологии, жители Земли создали специальную программу по защите планеты. Но ничего не может нас спасти от нового, еще более разрушительного и масштабного инопланетного вторжения — только смелость нескольких героев, которые единственные могут спасти наш мир от уничтожения.
  • Видео данные: MPEG-4 AVC, 14.2 Mбит/с, 1920x800
    Аудио данные: Русский (DTS, 6 ch, 768 Кбит/с), (AC3, 6 ch, 448 Кбит/с), украинский (AC3, 6 ch, 448 Кбит/с), английский (DTS-ES, 6 ch, 1510 Кбит/с)
    Перевод: Дублированный [лицензия]
    Продолжительность: 02:00:12
    Субтитры: Русские, английские, украинские
  • День независимости: Возрождение (2016) BDRip 1080p | Лицензия День независимости: Возрождение (2016) BDRip 1080p | Лицензия День независимости: Возрождение (2016) BDRip 1080p | Лицензия
  • General
    Unique ID : 234603786167220209784934457030456830066 (0xB07F0BB1FC84BBDD831D52CB751EE872)
    Complete name : H:\Video\Independence.Day.Resurgence.2016.BDRip.1080p.mkv
    Format : Matroska
    Format version : Version 4 / Version 2
    File size : 14.6 GiB
    Duration : 1 h 59 min
    Overall bit rate : 17.4 Mb/s
    Encoded date : UTC 2016-10-08 11:57:35
    Writing application : mkvmerge v8.3.0 ('Over the Horizon') 64bit
    Writing library : libebml v1.3.1 + libmatroska v1.4.2

    Video
    ID : 1
    Format : AVC
    Format/Info : Advanced Video Codec
    Format profile : High@L4.1
    Format settings, CABAC : Yes
    Format settings, ReFrames : 4 frames
    Codec ID : V_MPEG4/ISO/AVC
    Duration : 1 h 59 min
    Bit rate : 14.2 Mb/s
    Width : 1 920 pixels
    Height : 800 pixels
    Display aspect ratio : 2.40:1
    Frame rate mode : Constant
    Frame rate : 23.976 (24000/1001) FPS
    Color space : YUV
    Chroma subsampling : 4:2:0
    Bit depth : 8 bits
    Scan type : Progressive
    Bits/(Pixel*Frame) : 0.386
    Stream size : 11.9 GiB (82%)
    Writing library : x264 core 142 r2431+42 c69a006 tMod [8-bit@4:2:0 X86_64]
    Encoding settings : cabac=1 / ref=4 / deblock=1:-3:-3 / analyse=0x3:0x113 / me=umh / subme=11 / psy=1 / fade_compensate=0.00 / psy_rd=1.00:0.05 / mixed_ref=1 / me_range=48 / chroma_me=1 / trellis=2 / 8x8dct=1 / cqm=0 / deadzone=21,11 / fast_pskip=0 / chroma_qp_offset=-2 / threads=12 / lookahead_threads=2 / sliced_threads=0 / nr=0 / decimate=1 / interlaced=0 / bluray_compat=0 / constrained_intra=0 / fgo=0 / bframes=8 / b_pyramid=2 / b_adapt=2 / b_bias=0 / direct=3 / weightb=1 / open_gop=0 / weightp=2 / keyint=250 / keyint_min=23 / scenecut=40 / intra_refresh=0 / rc_lookahead=40 / rc=crf / mbtree=0 / crf=18.0000 / qcomp=0.60 / qpmin=0:0:0 / qpmax=69:69:69 / qpstep=4 / vbv_maxrate=50000 / vbv_bufsize=45000 / crf_max=0.0 / nal_hrd=none / filler=0 / ip_ratio=1.40 / pb_ratio=1.30 / aq=3:1.00 / aq-sensitivity=10.00 / aq-factor=1.00:1.00:1.00 / aq2=0 / aq3=0
    Language : English
    Default : Yes
    Forced : No
    Color range : Limited
    Matrix coefficients : BT.709

    Audio #1
    ID : 2
    Format : DTS
    Format/Info : Digital Theater Systems
    Mode : 16
    Format settings, Endianness : Big
    Codec ID : A_DTS
    Duration : 1 h 59 min
    Bit rate mode : Constant
    Bit rate : 768 kb/s
    Channel(s) : 6 channels
    Channel positions : Front: L C R, Side: L R, LFE
    Sampling rate : 48.0 kHz
    Frame rate : 93.750 FPS (512 spf)
    Bit depth : 24 bits
    Compression mode : Lossy
    Stream size : 658 MiB (4%)
    Language : Russian
    Default : Yes
    Forced : No

    Audio #2
    ID : 3
    Format : AC-3
    Format/Info : Audio Coding 3
    Mode extension : CM (complete main)
    Format settings, Endianness : Big
    Codec ID : A_AC3
    Duration : 1 h 59 min
    Bit rate mode : Constant
    Bit rate : 448 kb/s
    Channel(s) : 6 channels
    Channel positions : Front: L C R, Side: L R, LFE
    Sampling rate : 48.0 kHz
    Frame rate : 31.250 FPS (1536 spf)
    Compression mode : Lossy
    Stream size : 384 MiB (3%)
    Language : Russian
    Default : No
    Forced : No

    Audio #3
    ID : 4
    Format : AC-3
    Format/Info : Audio Coding 3
    Mode extension : CM (complete main)
    Format settings, Endianness : Big
    Codec ID : A_AC3
    Duration : 1 h 59 min
    Bit rate mode : Constant
    Bit rate : 448 kb/s
    Channel(s) : 6 channels
    Channel positions : Front: L C R, Side: L R, LFE
    Sampling rate : 48.0 kHz
    Frame rate : 31.250 FPS (1536 spf)
    Compression mode : Lossy
    Stream size : 384 MiB (3%)
    Language : Ukrainian
    Default : No
    Forced : No

    Audio #4
    ID : 5
    Format : DTS
    Format/Info : Digital Theater Systems
    Format profile : ES Matrix / Core
    Mode : 16
    Format settings, Endianness : Big
    Codec ID : A_DTS
    Duration : 1 h 59 min
    Bit rate mode : Constant
    Bit rate : 1 509 kb/s
    Channel(s) : 7 channels / 6 channels
    Channel positions : Front: L C R, Side: L R, Back: C, LFE / Front: L C R, Side: L R, LFE
    Sampling rate : 48.0 kHz
    Frame rate : 93.750 FPS (512 spf)
    Bit depth : 24 bits
    Compression mode : Lossy
    Stream size : 1.26 GiB (9%)
    Language : English
    Default : No
    Forced : No

    Text #1
    ID : 6
    Format : UTF-8
    Codec ID : S_TEXT/UTF8
    Codec ID/Info : UTF-8 Plain Text
    Duration : 1 h 57 min
    Bit rate : 1 b/s
    Count of elements : 15
    Stream size : 1.02 KiB (0%)
    Title : Forced
    Language : Russian
    Default : Yes
    Forced : No

    Text #2
    ID : 7
    Format : UTF-8
    Codec ID : S_TEXT/UTF8
    Codec ID/Info : UTF-8 Plain Text
    Duration : 1 h 58 min
    Bit rate : 94 b/s
    Count of elements : 1736
    Stream size : 82.0 KiB (0%)
    Title : Full iTunes
    Language : Russian
    Default : No
    Forced : No

    Text #3
    ID : 8
    Format : UTF-8
    Codec ID : S_TEXT/UTF8
    Codec ID/Info : UTF-8 Plain Text
    Duration : 1 h 58 min
    Bit rate : 95 b/s
    Count of elements : 1733
    Stream size : 82.9 KiB (0%)
    Title : Full iTunes
    Language : Ukrainian
    Default : No
    Forced : No

    Text #4
    ID : 9
    Format : UTF-8
    Codec ID : S_TEXT/UTF8
    Codec ID/Info : UTF-8 Plain Text
    Duration : 7 s 464 ms
    Bit rate : 114 b/s
    Count of elements : 3
    Stream size : 107 Bytes (0%)
    Title : Forced
    Language : English
    Default : No
    Forced : No

    Text #5
    ID : 10
    Format : UTF-8
    Codec ID : S_TEXT/UTF8
    Codec ID/Info : UTF-8 Plain Text
    Duration : 1 h 49 min
    Bit rate : 62 b/s
    Count of elements : 1711
    Stream size : 50.3 KiB (0%)
    Title : Full
    Language : English
    Default : No
    Forced : No

    Text #6
    ID : 11
    Format : UTF-8
    Codec ID : S_TEXT/UTF8
    Codec ID/Info : UTF-8 Plain Text
    Duration : 1 h 49 min
    Bit rate : 74 b/s
    Count of elements : 2158
    Stream size : 59.7 KiB (0%)
    Title : SDH
    Language : English
    Default : No
    Forced : No

    Menu
    00:00:00.000 : en:1
    00:05:37.336 : en:2
    00:09:15.471 : en:3
    00:14:06.720 : en:4
    00:19:40.470 : en:5
    00:22:59.001 : en:6
    00:27:10.252 : en:7
    00:31:37.644 : en:8
    00:39:11.974 : en:9
    00:43:41.117 : en:10
    00:47:46.612 : en:11
    00:52:32.190 : en:12
    00:59:10.255 : en:13
    01:02:00.132 : en:14
    01:07:12.068 : en:15
    01:09:54.814 : en:16
    01:13:11.720 : en:17
    01:18:27.452 : en:18
    01:22:45.502 : en:19
    01:27:51.807 : en:20
    01:32:36.716 : en:21
    01:39:38.137 : en:22
    01:47:20.141 : en:23
    01:50:36.712 : en:24
8.2 из 10
голосов: 10
/10
/10
616759 8-10-2016, 15:26

616759 | 8-10-2016, 15:36 | Статус: Оффлайн

foster720p, спасибо за обнову.

foster720p | 23-09-2016, 21:35 | Статус: Оффлайн

Цитата: DENZEL519
Дублированный [iTunes]

Это не iTunes, а дутая двухканалка.

DENZEL519 | 23-09-2016, 21:03 | Статус: Оффлайн

Дублированный [iTunes]
Информация
Посетители, находящиеся в группе Гости, не могут оставлять комментарии к данной публикации.