Панель пользователя
Регистрация

Воспользуйтесь социальными сетями для входа на https://freerutor.com

vk odnoklassniki facebook mailru yandex google
Популярное
Счетчик
Голосуй за нас
VIP на сайте
Популярное
Товары интернет магазина
загрузка...

Лето на восьмерых (2016) WEBRip 1080p

Лето на восьмерых (2016) WEBRip 1080p
Участники торрент обмена
Сидов Пиров Скачали
2 0 369
Характеристика
Размер Файлы
5.68 GB
Поделиться раздачей
Фильмы (720,1080,Blu-Ray)
Наименование: Лето на восьмерых
Оригинальное наименование: Summer of 8
Категория: Драма, мелодрама, комедия
Произведено: США / Organically Grown Productions, Provenance Pictures, TrustFall Films
Режиссер постановщик: Райан Шварц
В главных ролях: Картер Дженкинс, Мэтт Шивли, Шелли Хенниг, Соня Уолгер, Майкл Грант, Бэйли Ноубл, Рэйчел ДиПилло, Натали Холл
Краткое описание: Восемь лучших друзей наслаждаются последними деньками на пляже под солнечными лучами, перед разлукой, связанную со вступлением во взрослую жизнь и поступлением в колледж.
  • Видео данные: MPEG-4 AVC, 8040 Кбит/с, 1920x1080
    Аудио данные: Русский (AC3, 2 ch, 256 Кбит/с), английский (EAC3, 6 ch, 640 Кбит/с)
    Перевод: Любительский двухголосый [RecentFilms]
    Субтитры: Английские
    Продолжительность: 01:29:07
    РЕЛИЗ БЕЗ РЕКЛАМЫ!
  • Лето на восьмерых (2016) WEBRip 1080p Лето на восьмерых (2016) WEBRip 1080p Лето на восьмерых (2016) WEBRip 1080p
  • General
    Unique ID : 231044063688823364299803578722533313995 (0xADD177D3A3DDA63D82CB893215F50DCB)
    Complete name : I:\Summer.of.8.2016.L2.WEBRip.1080p.x264.Rus.Eng.mkv
    Format : Matroska
    Format version : Version 4 / Version 2
    File size : 5.68 GiB
    Duration : 1h 29mn
    Overall bit rate mode : Variable
    Overall bit rate : 9 118 Kbps
    Encoded date : UTC 2016-09-21 20:28:15
    Writing application : mkvmerge v8.3.0 ('Over the Horizon') 32bit
    Writing library : libebml v1.3.1 + libmatroska v1.4.2
    DURATION : 01:29:06.496000000
    NUMBER_OF_FRAMES : 167078
    NUMBER_OF_BYTES : 171087872
    _STATISTICS_WRITING_APP : mkvmerge v8.3.0 ('Over the Horizon') 32bit
    _STATISTICS_WRITING_DATE_UTC : 2016-09-21 20:28:15
    _STATISTICS_TAGS : BPS DURATION NUMBER_OF_FRAMES NUMBER_OF_BYTES
    Attachment : Yes

    Video
    ID : 1
    Format : AVC
    Format/Info : Advanced Video Codec
    Format profile : High@L4.0
    Format settings, CABAC : Yes
    Format settings, ReFrames : 4 frames
    Codec ID : V_MPEG4/ISO/AVC
    Duration : 1h 29mn
    Bit rate mode : Variable
    Bit rate : 8 040 Kbps
    Maximum bit rate : 15.0 Mbps
    Width : 1 920 pixels
    Height : 1 080 pixels
    Display aspect ratio : 16:9
    Frame rate mode : Constant
    Frame rate : 23.976 fps
    Color space : YUV
    Chroma subsampling : 4:2:0
    Bit depth : 8 bits
    Scan type : Progressive
    Bits/(Pixel*Frame) : 0.162
    Stream size : 5.00 GiB (88%)
    Writing library : x264 core 148 r2623 d5b2374
    Encoding settings : cabac=1 / ref=4 / deblock=1:-1:-1 / analyse=0x3:0x133 / me=umh / subme=9 / psy=1 / psy_rd=1.00:0.15 / mixed_ref=1 / me_range=24 / chroma_me=1 / trellis=2 / 8x8dct=1 / cqm=0 / deadzone=21,11 / fast_pskip=1 / chroma_qp_offset=-3 / threads=34 / lookahead_threads=5 / sliced_threads=0 / nr=150 / decimate=1 / interlaced=0 / bluray_compat=0 / constrained_intra=0 / bframes=8 / b_pyramid=2 / b_adapt=2 / b_bias=0 / direct=3 / weightb=1 / open_gop=0 / weightp=2 / keyint=120 / keyint_min=61 / scenecut=0 / intra_refresh=0 / rc_lookahead=120 / rc=crf / mbtree=1 / crf=18.0 / qcomp=0.60 / qpmin=0 / qpmax=69 / qpstep=4 / vbv_maxrate=15000 / vbv_bufsize=31250 / crf_max=0.0 / nal_hrd=vbr / filler=0 / ip_ratio=1.40 / aq=3:1.00
    Language : English
    Default : Yes
    Forced : No
    DURATION : 01:29:06.496000000
    NUMBER_OF_FRAMES : 167078
    NUMBER_OF_BYTES : 427719680
    _STATISTICS_WRITING_APP : mkvmerge v8.3.0 ('Over the Horizon') 32bit
    _STATISTICS_WRITING_DATE_UTC : 2016-09-21 20:28:15
    _STATISTICS_TAGS : BPS DURATION NUMBER_OF_FRAMES NUMBER_OF_BYTES
    Color primaries : BT.709
    Transfer characteristics : BT.709
    Matrix coefficients : BT.709

    Audio #1
    ID : 2
    Format : AC-3
    Format/Info : Audio Coding 3
    Mode extension : CM (complete main)
    Format settings, Endianness : Big
    Codec ID : A_AC3
    Duration : 1h 29mn
    Bit rate mode : Constant
    Bit rate : 256 Kbps
    Channel(s) : 2 channels
    Channel positions : Front: L R
    Sampling rate : 48.0 KHz
    Bit depth : 16 bits
    Compression mode : Lossy
    Stream size : 163 MiB (3%)
    Title : Любительский двухголосый (RecentFilms)
    Language : Russian
    Default : Yes
    Forced : No
    DURATION : 01:29:06.550000000
    NUMBER_OF_FRAMES : 128189
    NUMBER_OF_BYTES : 5493000740
    _STATISTICS_WRITING_APP : mkvmerge v8.3.0 ('Over the Horizon') 32bit
    _STATISTICS_WRITING_DATE_UTC : 2016-09-21 20:28:15
    _STATISTICS_TAGS : BPS DURATION NUMBER_OF_FRAMES NUMBER_OF_BYTES

    Audio #2
    ID : 3
    Format : E-AC-3
    Format/Info : Audio Coding 3
    Format settings, Endianness : Big
    Codec ID : A_EAC3
    Duration : 1h 29mn
    Bit rate mode : Constant
    Bit rate : 640 Kbps
    Channel(s) : 6 channels
    Channel positions : Front: L C R, Side: L R, LFE
    Sampling rate : 48.0 KHz
    Compression mode : Lossy
    Stream size : 408 MiB (7%)
    Title : Original
    Language : English
    Default : No
    Forced : No
    DURATION : 01:23:32.174000000
    NUMBER_OF_FRAMES : 1239
    NUMBER_OF_BYTES : 35318
    _STATISTICS_WRITING_APP : mkvmerge v8.3.0 ('Over the Horizon') 32bit
    _STATISTICS_WRITING_DATE_UTC : 2016-09-21 20:28:15
    _STATISTICS_TAGS : BPS DURATION NUMBER_OF_FRAMES NUMBER_OF_BYTES

    Text
    ID : 4
    Format : UTF-8
    Codec ID : S_TEXT/UTF8
    Codec ID/Info : UTF-8 Plain Text
    Language : English
    Default : No
    Forced : No
10.0 из 10
голосов: 2
/10
/10
grab777 22-09-2016, 06:21
Информация
Посетители, находящиеся в группе Гости, не могут оставлять комментарии к данной публикации.