Панель пользователя
Регистрация

Воспользуйтесь социальными сетями для входа на https://freerutor.com

vk odnoklassniki facebook mailru yandex google
Популярное
Счетчик
Голосуй за нас
VIP на сайте
Популярное
Товары интернет магазина
загрузка...

Готэм (3 сезон 1-11 серии из 22) (2016) HDTVRip 1080p | IdeaFilm

Готэм  (3 сезон 1-11 серии из 22) (2016) HDTVRip 1080p | IdeaFilm
Участники торрент обмена
Сидов Пиров Скачали
1 5 10
Характеристика
Размер Файлы
20.43 GB
Поделиться раздачей
Заруб. сериалы (720P,1080P)
Наименование: Готэм
Оригинальное наименование: Gotham
Произведено: США
Категория: триллер, драма, криминал
Режиссер постановщик: Дэнни Кэннон, Т.Дж. Скотт, Дермотт Даунс
В главных ролях:Бенжамин МакКензи, Донал Лог, Дэвид Мазоуз, Забрина Гевара, Шон Пертуи, Робин Тейлор, Эрин Ричардс, Камрен Бикондова, Кори Майкл Смит, Джада Пинкетт Смит, Эндрю Стюарт-Джонс, Виктория Картагена, Джон Доумен, Дрю Пауэлл, Ричард Кайнд, Грэйсон МакКоч, Кэрол Кейн, Макензи Ли, Дэнни Мастроджорджо
Краткое описание: Новый сотрудник департамента полиции Готэма, детектив Джеймс Гордон и его напарник Харви Баллок назначаются начальником отдела полиции Готэма по расследованию убийств Сарой Эссен на самое громкое дело последних лет - убийство Томаса и Марты Уэйн. Во время расследования Гордон знакомится с сыном убитых - Брюсом Уэйном, который после смерти родителей находится под опекой своего дворецкого Альфреда. Одновременно с расследованием убийства Гордону приходится бороться с местным главарем банды Фишем Муни, а также с будущими злодеями Готэма: Селиной Кайл и Освальдом Кобблпотом. В итоге, Гордон фокусируется на дружбе с молодым Брюсом, чтобы в будущем сделать из маленького мальчика Тёмного рыцаря - защитника Готэма.
  • Видео данные: MPEG-4 AVC, ~ 5000 kbps, 1920x1080
    Аудио данные: Русский (AC3, 6 ch, 384 kbps), английский (AC3, 6 ch, 640 kbps)
    Перевод: Профессиональный многоголосый [IdeaFilm]
    Субтитры: | русские (daf_winchester) | английские
    Продолжительность: 1 х ~ 00:45:00

    Готэм  (3 сезон 1-11 серии из 22) (2016) HDTVRip 1080p | IdeaFilm
  • Готэм  (3 сезон 1-11 серии из 22) (2016) HDTVRip 1080p | IdeaFilm Готэм  (3 сезон 1-11 серии из 22) (2016) HDTVRip 1080p | IdeaFilm Готэм  (3 сезон 1-11 серии из 22) (2016) HDTVRip 1080p | IdeaFilm
  • Общее
    Уникальный идентификатор : 199011321588457430598793676082466520124 (0x95B82FB4C28FCC4BAE789FE79F7BFC3C)
    Полное имя : D:\загрузки\Gotham (Season 03) IDEAFILM\Gotham.S03E01.1080p.HDTV.X264.IDEAFILM.mkv
    Формат : Matroska
    Версия формата : Version 2
    Размер файла : 1,85 Гбайт
    Продолжительность : 44 м.
    Общий поток : 6012 Кбит/сек
    Дата кодирования : UTC 2016-09-20 16:18:40
    Программа кодирования : mkvmerge v7.8.0 ('River Man') 32bit built on Apr 3 2015 12:11:22
    Библиотека кодирования : libebml v1.3.1 + libmatroska v1.4.2

    Видео
    Идентификатор : 1
    Формат : AVC
    Формат/Информация : Advanced Video Codec
    Профиль формата : High@L4.1
    Параметр CABAC формата : Да
    Параметр ReFrames формата : 4 кадра
    Идентификатор кодека : V_MPEG4/ISO/AVC
    Продолжительность : 44 м.
    Битрейт : 4868 Кбит/сек
    Ширина : 1920 пикселей
    Высота : 1080 пикселей
    Соотношение сторон : 16:9
    Режим частоты кадров : Постоянный
    Частота кадров : 23,976 кадра/сек
    Цветовое пространство : YUV
    Субдискретизация насыщенности : 4:2:0
    Битовая глубина : 8 бит
    Тип развёртки : Прогрессивная
    Бит/(Пиксели*Кадры) : 0.098
    Размер потока : 1,50 Гбайт (81%)
    Библиотека кодирования : x264 core 148 r2705 3f5ed56
    Настройки программы : cabac=1 / ref=4 / deblock=1:-3:-3 / analyse=0x3:0x133 / me=umh / subme=11 / psy=1 / psy_rd=1.00:0.00 / mixed_ref=1 / me_range=32 / chroma_me=1 / trellis=2 / 8x8dct=1 / cqm=0 / deadzone=21,11 / fast_pskip=0 / chroma_qp_offset=-2 / threads=16 / lookahead_threads=1 / sliced_threads=0 / nr=0 / decimate=1 / interlaced=0 / bluray_compat=0 / constrained_intra=0 / bframes=5 / b_pyramid=2 / b_adapt=2 / b_bias=0 / direct=3 / weightb=1 / open_gop=0 / weightp=2 / keyint=250 / keyint_min=23 / scenecut=40 / intra_refresh=0 / rc_lookahead=60 / rc=crf / mbtree=1 / crf=17.0 / qcomp=0.60 / qpmin=0 / qpmax=69 / qpstep=4 / ip_ratio=1.40 / aq=1:1.00
    Язык : English
    Default : Да
    Forced : Нет
    Коэффициенты матрицы : BT.709

    Аудио #1
    Идентификатор : 2
    Формат : AC-3
    Формат/Информация : Audio Coding 3
    Расширение режима : CM (complete main)
    Параметр Endianness формата : Big
    Идентификатор кодека : A_AC3
    Продолжительность : 44 м.
    Вид битрейта : Постоянный
    Битрейт : 384 Кбит/сек
    Каналы : 6 каналов
    Расположение каналов : Front: L C R, Side: L R, LFE
    Частота : 48,0 КГц
    Битовая глубина : 16 бит
    Метод сжатия : С потерями
    Размер потока : 121 Мбайт (6%)
    Язык : Russian
    Default : Да
    Forced : Нет

    Аудио #2
    Идентификатор : 3
    Формат : AC-3
    Формат/Информация : Audio Coding 3
    Расширение режима : CM (complete main)
    Параметр Endianness формата : Big
    Идентификатор кодека : A_AC3
    Продолжительность : 44 м.
    Вид битрейта : Постоянный
    Битрейт : 640 Кбит/сек
    Каналы : 6 каналов
    Расположение каналов : Front: L C R, Side: L R, LFE
    Частота : 48,0 КГц
    Битовая глубина : 16 бит
    Метод сжатия : С потерями
    Размер потока : 202 Мбайт (11%)
    Язык : English
    Default : Нет
    Forced : Нет
3.4 из 10
голосов: 15
/10
/10
Раздачу отредактировал: karta - 30-11-2016, 03:32
По причине: (+ 11 серия!)
karta 30-11-2016, 03:32
Информация
Посетители, находящиеся в группе Гости, не могут оставлять комментарии к данной публикации.