Панель пользователя
Регистрация

Воспользуйтесь социальными сетями для входа на https://freerutor.com

vk odnoklassniki facebook mailru yandex google
Популярное
Счетчик
Голосуй за нас
VIP на сайте
Популярное
Товары интернет магазина
загрузка...

Зверополис (2016) BDRip 720р | FocusStudio | R.G.Resident

Зверополис (2016) BDRip 720р | FocusStudio | R.G.Resident
Участники торрент обмена
Сидов Пиров Скачали
31 1 967
Характеристика
Размер Файлы
4.03 GB
Релиз группа
Поделиться раздачей
Мультфильмы
Наименование: Зверополис
Оригинальное наименование: Zootopia
Категория: мультфильм, боевик, комедия, криминал, детектив, приключения, семейный
Произведено: США
Режиссер постановщик: Байрон Ховард , Рич Мур , Джаред Буш
В главных ролях: Джиннифер Гудвин, Джейсон Бейтман, Идрис Эльба, Дженни Слейт, Нейт Торренс, Бонни Хант, Дон Лейк, Томми Чонг, Дж.К. Симмонс, Октавия Спенсер, Алан Тьюдик, Шакира
Краткое описание: Добро пожаловать в Зверополис - современный город, населенный самыми разными животными, от огромных слонов до крошечных мышек. Зверополис разделен на районы, полностью повторяющие естественную среду обитания разных жителей - здесь есть и элитный район Площадь Сахары и неприветливый Тундратаун. В этом городе появляется новый офицер полиции, жизнерадостная зайчиха Джуди Хоппс, которая с первых дней работы понимает, как сложно быть маленькой и пушистой среди больших и сильных полицейских. Джуди хватается за первую же возможность проявить себя, несмотря на то, что ее партнером будет болтливый хитрый лис Ник Уайлд. Вдвоем им предстоит раскрыть сложное дело, от которого будет зависеть судьба всех обитателей Зверополиса.
  • Видео данные: MPEG-4 AVC, 4030 Кбит/с, 1280x536
    Аудио данные: Русский (AC3, 6 ch, 640 Кбит/с), английский (АС3, 6 ch, 640 Кбит/с)
    Перевод: Профессиональный (многоголосый) FocusStudio
    Продолжительность: 01:48:32
    Субтитры: русские (FocusStudio), английские (Full), английские (SDH)
  • Зверополис (2016) BDRip 720р | FocusStudio | R.G.Resident Зверополис (2016) BDRip 720р | FocusStudio | R.G.Resident Зверополис (2016) BDRip 720р | FocusStudio | R.G.Resident
  • General
    Unique ID : 174475956114748577713598771167153259723 (0x8342D8CAE134E72F9EA72932F80E84CB)
    Complete name : D:downloadZootopia. 2016. BDRip 720р by schultz R.G.Resident.mkv
    Format : Matroska
    Format version : Version 4 / Version 2
    File size : 4.03 GiB
    Duration : 1 h 48 min
    Overall bit rate : 5 312 kb/s
    Encoded date : UTC 2016-09-18 07:21:19
    Writing application : mkvmerge v8.9.0 ('Father Daughter') 64bit
    Writing library : libebml v1.3.3 + libmatroska v1.4.4

    Video
    ID : 1
    Format : AVC
    Format/Info : Advanced Video Codec
    Format profile : High@L4.1
    Format settings, CABAC : Yes
    Format settings, ReFrames : 11 frames
    Codec ID : V_MPEG4/ISO/AVC
    Duration : 1 h 48 min
    Bit rate : 4 030 kb/s
    Width : 1 280 pixels
    Height : 536 pixels
    Display aspect ratio : 2.40:1
    Frame rate mode : Constant
    Frame rate : 23.976 FPS
    Color space : YUV
    Chroma subsampling : 4:2:0
    Bit depth : 8 bits
    Scan type : Progressive
    Bits/(Pixel*Frame) : 0.245
    Stream size : 3.06 GiB (76%)
    Writing library : x264 core 146 r2538 121396c
    Encoding settings : cabac=1 / ref=11 / deblock=1:-3:-3 / analyse=0x3:0x113 / me=umh / subme=11 / psy=1 / psy_rd=1.00:0.00 / mixed_ref=1 / me_range=48 / chroma_me=1 / trellis=2 / 8x8dct=1 / cqm=0 / deadzone=21,11 / fast_pskip=0 / chroma_qp_offset=-2 / threads=12 / lookahead_threads=3 / sliced_threads=0 / nr=0 / decimate=0 / interlaced=0 / bluray_compat=0 / constrained_intra=0 / bframes=12 / b_pyramid=2 / b_adapt=2 / b_bias=0 / direct=3 / weightb=1 / open_gop=0 / weightp=2 / keyint=240 / keyint_min=23 / scenecut=40 / intra_refresh=0 / rc_lookahead=40 / rc=2pass / mbtree=1 / bitrate=4030 / ratetol=1.0 / qcomp=0.60 / qpmin=0 / qpmax=69 / qpstep=4 / cplxblur=20.0 / qblur=0.5 / vbv_maxrate=14000 / vbv_bufsize=14000 / nal_hrd=none / filler=0 / ip_ratio=1.40 / aq=1:1.00
    Language : English
    Default : Yes
    Forced : No

    Audio #1
    ID : 2
    Format : AC-3
    Format/Info : Audio Coding 3
    Mode extension : CM (complete main)
    Format settings, Endianness : Big
    Codec ID : A_AC3
    Duration : 1 h 48 min
    Bit rate mode : Constant
    Bit rate : 640 kb/s
    Channel(s) : 6 channels
    Channel positions : Front: L C R, Side: L R, LFE
    Sampling rate : 48.0 kHz
    Frame rate : 31.250 FPS (1536 spf)
    Compression mode : Lossy
    Stream size : 497 MiB (12%)
    Language : Russian
    Default : Yes
    Forced : No

    Audio #2
    ID : 3
    Format : AC-3
    Format/Info : Audio Coding 3
    Mode extension : CM (complete main)
    Format settings, Endianness : Big
    Codec ID : A_AC3
    Duration : 1 h 48 min
    Bit rate mode : Constant
    Bit rate : 640 kb/s
    Channel(s) : 6 channels
    Channel positions : Front: L C R, Side: L R, LFE
    Sampling rate : 48.0 kHz
    Frame rate : 31.250 FPS (1536 spf)
    Compression mode : Lossy
    Stream size : 497 MiB (12%)
    Language : English
    Default : No
    Forced : No

    Text #1
    ID : 4
    Format : UTF-8
    Codec ID : S_TEXT/UTF8
    Codec ID/Info : UTF-8 Plain Text
    Duration : 1 h 39 min
    Bit rate : 123 b/s
    Count of elements : 1426
    Stream size : 89.6 KiB (0%)
    Title : FocusStudio
    Language : Russian
    Default : No
    Forced : No

    Text #2
    ID : 5
    Format : UTF-8
    Codec ID : S_TEXT/UTF8
    Codec ID/Info : UTF-8 Plain Text
    Duration : 1 h 38 min
    Bit rate : 74 b/s
    Count of elements : 1700
    Stream size : 53.7 KiB (0%)
    Title : Full
    Language : English
    Default : No
    Forced : No

    Text #3
    ID : 6
    Format : UTF-8
    Codec ID : S_TEXT/UTF8
    Codec ID/Info : UTF-8 Plain Text
    Duration : 1 h 45 min
    Bit rate : 82 b/s
    Count of elements : 2295
    Stream size : 64.3 KiB (0%)
    Title : Full SDH
    Language : English
    Default : No
    Forced : No

    Menu
    00:00:00.000 : en:Prologue
    00:00:59.559 : en:Gideon Grey
    00:05:50.099 : en:The Police Academy
    00:10:05.563 : en:Welcome to Zootopia
    00:14:31.537 : en:Meter Maid Duty
    00:18:24.019 : en:Pawpsicles
    00:26:03.353 : en:The Weasel Chase
    00:30:57.438 : en:It's Called A Hustle
    00:37:07.099 : en:The Naturalist Club
    00:40:43.441 : en:Department Of 10
    00:44:31.752 : en:Mr. Big
    00:51:40.430 : en:Manchas Goes Savage
    00:55:40.378 : en:The Gondola
    01:00:48.269 : en:Help from Bellwether
    01:03:37.855 : en:Cliffside Asylum
    01:09:19.822 : en:We Cracked the Case
    01:13:39.164 : en:Hopps Gives Up
    01:17:07.372 : en:Hopps' Apology
    01:21:52.365 : en:Doug's Laboratory
    01:28:19.168 : en:The Natural History Museum
    01:32:43.432 : en:Epilogue
    01:36:12.141 : en:End Credits
5.5 из 10
голосов: 2
/10
/10
schultz 18-09-2016, 11:08
Информация
Посетители, находящиеся в группе Гости, не могут оставлять комментарии к данной публикации.