Панель пользователя
Регистрация

Воспользуйтесь социальными сетями для входа на https://freerutor.com

vk odnoklassniki facebook mailru yandex google
Популярное
Счетчик
Голосуй за нас
VIP на сайте
Популярное
Товары интернет магазина
загрузка...

Запрос в друзья (2016) Blu-Ray Remux 1080p | iTunes

Запрос в друзья (2016) Blu-Ray Remux 1080p | iTunes
Участники торрент обмена
Сидов Пиров Скачали
4 0 183
Характеристика
Размер Файлы
18.73 GB
Релиз группа
Поделиться раздачей
Фильмы (720,1080,Blu-Ray)
Наименование: Запрос в друзья
Оригинальное наименование: Friend Request
Категория: Триллер, ужасы
Произведено: Германия, Seven Pictures, Two Oceans Production (TOP), Cape Town, Wiedemann & Berg Filmproduktion
Режиссер постановщик: Симон Ферхоэвен
В главных ролях: Алисия Дебнем Кери, Уильям Моусли, Коннор Паоло, Бритт Морган, Брук Маркам, Шон Маркетт, Лизль Алерс, Шэшони Холл, Сьюзэн Дэнфорд, Ли Равив
Краткое описание: Вас добавляет в друзья одноклассник, однокурсник или коллега с работы, с которым вы практически никогда не общались, и начинает буквально атаковать вас сообщениями, почему-то решив, что вы с ним лучшие друзья. Знакомая ситуация? В подобную попадает Лора — главная героиня леденящего кровь триллера «Запрос в друзья». Решение удалить из френд-листа навязчивую и странноватую однокурсницу приведет к таким последствиям, которые не смогли бы предугадать даже самые большие любители хорроров.
  • Видео данные: MPEG-4 AVC, 25.0 Mбит/с, 1920x1080
    Аудио данные: Русский (АС3, 6 ch, 384 Кбит/с), английский (DTS-HD MA, 6 ch, 3725 Кбит/с)
    Перевод: Дублированный [iTunes]
    Субтитры: Английские
    Продолжительность: 01:32:14
  • Запрос в друзья (2016) Blu-Ray Remux 1080p | iTunes Запрос в друзья (2016) Blu-Ray Remux 1080p | iTunes Запрос в друзья (2016) Blu-Ray Remux 1080p | iTunes
  • Общее
    Уникальный идентификатор : 245374038872345966311059379693577909899 (0xB8995226C2DD8F7BA2F329D069D1368B)
    Полное имя : G:\Video\Friend.Request.2016.D.BDREMUX.1080p.ExKinoRay.mkv
    Формат : Matroska
    Версия формата : Version 4 / Version 2
    Размер файла : 18,7 Гбайт
    Продолжительность : 1 ч. 32 м.
    Режим общего битрейта : Переменный
    Общий поток : 29,1 Мбит/сек
    Название фильма : build by ***селезень***
    Дата кодирования : UTC 2016-09-17 14:41:10
    Программа кодирования : mkvmerge v8.3.0 ('Over the Horizon') 64bit
    Библиотека кодирования : libebml v1.3.1 + libmatroska v1.4.2

    Видео
    Идентификатор : 1
    Формат : AVC
    Формат/Информация : Advanced Video Codec
    Профиль формата : High@L4.1
    Параметр CABAC формата : Да
    Параметр ReFrames формата : 3 кадра
    Идентификатор кодека : V_MPEG4/ISO/AVC
    Продолжительность : 1 ч. 32 м.
    Вид битрейта : Переменный
    Битрейт : 25,0 Мбит/сек
    Максимальный битрейт : 35,0 Мбит/сек
    Ширина : 1920 пикселей
    Высота : 1080 пикселей
    Соотношение сторон : 16:9
    Режим частоты кадров : Постоянный
    Частота кадров : 23,976 (24000/1001) кадра/сек
    Цветовое пространство : YUV
    Субдискретизация насыщенности : 4:2:0
    Битовая глубина : 8 бит
    Тип развёртки : Прогрессивная
    Бит/(Пиксели*Кадры) : 0.502
    Размер потока : 16,1 Гбайт (86%)
    Заголовок : build by ***селезень***
    Язык : English
    Default : Да
    Forced : Нет

    Аудио #1
    Идентификатор : 2
    Формат : AC-3
    Формат/Информация : Audio Coding 3
    Расширение режима : CM (complete main)
    Параметр Endianness формата : Big
    Идентификатор кодека : A_AC3
    Продолжительность : 1 ч. 32 м.
    Вид битрейта : Постоянный
    Битрейт : 384 Кбит/сек
    Каналы : 6 каналов
    Расположение каналов : Front: L C R, Side: L R, LFE
    Частота : 48,0 КГц
    Частота кадров : 31,250 кадров/сек (1536 spf)
    Метод сжатия : С потерями
    Задержка видео : 6 с. 0 мс.
    Размер потока : 253 Мбайт (1%)
    Заголовок : iTunes
    Язык : Russian
    Default : Да
    Forced : Нет

    Аудио #2
    Идентификатор : 3
    Формат : DTS
    Формат/Информация : Digital Theater Systems
    Профиль формата : MA / Core
    Режим : 16
    Параметр Endianness формата : Big
    Идентификатор кодека : A_DTS
    Продолжительность : 1 ч. 32 м.
    Вид битрейта : Переменный / Постоянный
    Битрейт : 3725 Кбит/сек / 1509 Кбит/сек
    Каналы : 6 каналов
    Расположение каналов : Front: L C R, Side: L R, LFE
    Частота : 48,0 КГц
    Частота кадров : 93,750 кадра/сек (512 spf)
    Битовая глубина : 24 бит
    Метод сжатия : Без потерь / Lossy
    Размер потока : 2,40 Гбайт (13%)
    Заголовок : Original
    Язык : English
    Default : Нет
    Forced : Нет

    Текст #1
    Идентификатор : 4
    Формат : UTF-8
    Идентификатор кодека : S_TEXT/UTF8
    Идентификатор кодека/Информация : UTF-8 Plain Text
    Продолжительность : 1 ч. 26 м.
    Битрейт : 31 бит/сек
    Count of elements : 649
    Размер потока : 19,8 Кбайт (0%)
    Заголовок : Full
    Язык : English
    Default : Нет
    Forced : Нет

    Текст #2
    Идентификатор : 5
    Формат : UTF-8
    Идентификатор кодека : S_TEXT/UTF8
    Идентификатор кодека/Информация : UTF-8 Plain Text
    Продолжительность : 1 ч. 26 м.
    Битрейт : 40 бит/сек
    Count of elements : 878
    Размер потока : 25,4 Кбайт (0%)
    Заголовок : SDH
    Язык : English
    Default : Нет
    Forced : Нет

    Меню
    00:00:00.000 : en:Chapter 01
    00:03:59.906 : en:Chapter 02
    00:07:50.220 : en:Chapter 03
    00:14:23.071 : en:Chapter 04
    00:18:36.574 : en:Chapter 05
    00:23:29.992 : en:Chapter 06
    00:27:39.449 : en:Chapter 07
    00:32:51.261 : en:Chapter 08
    00:38:16.586 : en:Chapter 09
    00:43:58.177 : en:Chapter 10
    00:47:32.433 : en:Chapter 11
    00:54:25.721 : en:Chapter 12
    00:57:55.305 : en:Chapter 13
    01:02:06.806 : en:Chapter 14
    01:06:10.884 : en:Chapter 15
    01:11:01.549 : en:Chapter 16
    01:17:48.247 : en:Chapter 17
    01:23:16.783 : en:Chapter 18
    01:31:48.294 : en:Chapter 19
    01:35:52.705 : en:Chapter 20
5.5 из 10
голосов: 2
/10
/10
616759 17-09-2016, 18:22
Информация
Посетители, находящиеся в группе Гости, не могут оставлять комментарии к данной публикации.